Поиск

(Vocal Jazz) [CD] Nina Pedersen - Songs from the Top of the World - 2011, FLAC (tracks+.cue), lossless

(Vocal Jazz) [CD] Nina Pedersen - Songs from the Top of the World - 2011, FLAC (tracks+.cue), lossless
Треклист:
Nina Pedersen - Songs from the Top of the World
Жанр: Vocal Jazz
Носитель: CD
Страна-производитель диска (релиза): Италия
Год издания: 2011
Издатель (лейбл): Alfa Music
Номер по каталогу: AFMCD145
Аудиокодек: FLAC (*.flac)
Тип рипа: tracks+.cue
Битрейт аудио: lossless
Продолжительность: 50:19
Источник (релизер): jazzambazzador
Наличие сканов в содержимом раздачи: нет
Треклист:
01. Songen Hennar Magnill (Krokann-Olsen) - 6:29
02. En liten vise (Overland-Trad.) - 7:26
03. Jeg lagde meg sa silde (Trad.) - 4:45
04. Varvindar friska (Nyberg-Trad.)/Vardans (Pedersen) - 5:29
05. Kveld-sang for Blakken (Rolfsen-Grieg) - 5:51
06. Sneen daler stille (Pedersen) - 5:46
07. Eg ser deg utfor gluggen (Trad.) - 4:09
08. Den fyrste song (Sivle-Soraas) - 3:45
09. Wintersong (Pedersen) - 4:58
10. Hogt fra den himmelske klara (Grimstad) - 1:41
Состав:
Nina Jori Pedersen - vocals
Aldo Bassi - trumpet
Arnaldo Vacca - percussion
Carlo Cossu - violin
Luca Pirozzi - bass
Lutte Berg - guitars
Recorded at Extrabeat Recording Studio, Rome.
 
Лог создания рипа
X Lossless Decoder version 20160920 (149.2)
XLD extraction logfile from 2018-05-28 19:05:13 +0200
Nina Pedersen / Songs From The Top Of The World
Used drive : HL-DT-ST DVDRW GX40N (revision RQ00)
Media type : Pressed CD
Ripper mode : XLD Secure Ripper
Disable audio cache : OK for the drive with a cache less than 1375KiB
Make use of C2 pointers : NO
Read offset correction : 6
Max retry count : 20
Gap status : Analyzed, Appended (except HTOA)
TOC of the extracted CD
Track | Start | Length | Start sector | End sector
---------------------------------------------------------
1 | 00:00:00 | 06:28:44 | 0 | 29143
2 | 06:28:44 | 07:25:74 | 29144 | 62592
3 | 13:54:43 | 04:45:31 | 62593 | 83998
4 | 18:39:74 | 05:28:47 | 83999 | 108645
5 | 24:08:46 | 05:51:08 | 108646 | 134978
6 | 29:59:54 | 05:45:51 | 134979 | 160904
7 | 35:45:30 | 04:08:55 | 160905 | 179559
8 | 39:54:10 | 03:44:64 | 179560 | 196423
9 | 43:38:74 | 04:58:36 | 196424 | 218809
10 | 48:37:35 | 01:41:01 | 218810 | 226385
AccurateRip Summary
Disc not found in AccurateRip DB.
All Tracks
Album gain : -7.09 dB
Peak : 0.990112
Statistics
Read error : 0
Jitter error (maybe fixed) : 0
Retry sector count : 0
Damaged sector count : 0
Track 01
Filename : /rips/Nina Pedersen - Songs From The Top Of The World (2011) [FLAC]/01 Songen Hennar Magnill.flac
Pre-gap length : 00:02:00
Track gain : -5.71 dB
Peak : 0.990112
CRC32 hash (test run) : CAE054CA
CRC32 hash : CAE054CA
CRC32 hash (skip zero) : E96DECDF
AccurateRip v1 signature : 6A17B856
AccurateRip v2 signature : 152FBC9C
->Track not present in AccurateRip database.
Statistics
Read error : 0
Jitter error (maybe fixed) : 0
Retry sector count : 0
Damaged sector count : 0
Track 02
Filename : /rips/Nina Pedersen - Songs From The Top Of The World (2011) [FLAC]/02 En Liten Vise.flac
Pre-gap length : 00:03:00
Track gain : -6.82 dB
Peak : 0.979156
CRC32 hash (test run) : 1E3C4236
CRC32 hash : 1E3C4236
CRC32 hash (skip zero) : 53E33612
AccurateRip v1 signature : 879BE11C
AccurateRip v2 signature : 1B9D8D17
->Track not present in AccurateRip database.
Statistics
Read error : 0
Jitter error (maybe fixed) : 0
Retry sector count : 0
Damaged sector count : 0
Track 03
Filename : /rips/Nina Pedersen - Songs From The Top Of The World (2011) [FLAC]/03 Jeg Lagde Meg SГҐ Silde.flac
Pre-gap length : 00:03:00
Track gain : -8.40 dB
Peak : 0.961761
CRC32 hash (test run) : ED0E4D92
CRC32 hash : ED0E4D92
CRC32 hash (skip zero) : 5F6114E1
AccurateRip v1 signature : 781EDA15
AccurateRip v2 signature : 3EB2033E
->Track not present in AccurateRip database.
Statistics
Read error : 0
Jitter error (maybe fixed) : 0
Retry sector count : 0
Damaged sector count : 0
Track 04
Filename : /rips/Nina Pedersen - Songs From The Top Of The World (2011) [FLAC]/04 VГҐrvindar Friska - VГҐrdans.flac
Pre-gap length : 00:03:00
Track gain : -8.41 dB
Peak : 0.982178
CRC32 hash (test run) : 22F464D2
CRC32 hash : 22F464D2
CRC32 hash (skip zero) : E16052F6
AccurateRip v1 signature : 562C29C1
AccurateRip v2 signature : B2A80144
->Track not present in AccurateRip database.
Statistics
Read error : 0
Jitter error (maybe fixed) : 0
Retry sector count : 0
Damaged sector count : 0
Track 05
Filename : /rips/Nina Pedersen - Songs From The Top Of The World (2011) [FLAC]/05 Kveld-sang For Blakken.flac
Pre-gap length : 00:03:00
Track gain : -5.53 dB
Peak : 0.985626
CRC32 hash (test run) : 150AE1AD
CRC32 hash : 150AE1AD
CRC32 hash (skip zero) : EA67FC9A
AccurateRip v1 signature : 22886F3C
AccurateRip v2 signature : D2FD386C
->Track not present in AccurateRip database.
Statistics
Read error : 0
Jitter error (maybe fixed) : 0
Retry sector count : 0
Damaged sector count : 0
Track 06
Filename : /rips/Nina Pedersen - Songs From The Top Of The World (2011) [FLAC]/06 Sneen Daler Stille.flac
Pre-gap length : 00:03:00
Track gain : -5.65 dB
Peak : 0.987427
CRC32 hash (test run) : 051C3989
CRC32 hash : 051C3989
CRC32 hash (skip zero) : DB1490C8
AccurateRip v1 signature : 48149021
AccurateRip v2 signature : 1747EA00
->Track not present in AccurateRip database.
Statistics
Read error : 0
Jitter error (maybe fixed) : 0
Retry sector count : 0
Damaged sector count : 0
Track 07
Filename : /rips/Nina Pedersen - Songs From The Top Of The World (2011) [FLAC]/07 Eg Ser Deg Utfor Gluggen.flac
Pre-gap length : 00:03:00
Track gain : -6.77 dB
Peak : 0.945038
CRC32 hash (test run) : 38C09794
CRC32 hash : 38C09794
CRC32 hash (skip zero) : C9D44809
AccurateRip v1 signature : 4767F66C
AccurateRip v2 signature : 565E5F76
->Track not present in AccurateRip database.
Statistics
Read error : 0
Jitter error (maybe fixed) : 0
Retry sector count : 0
Damaged sector count : 0
Track 08
Filename : /rips/Nina Pedersen - Songs From The Top Of The World (2011) [FLAC]/08 Den Fyrste Song.flac
Pre-gap length : 00:03:00
Track gain : -4.53 dB
Peak : 0.964203
CRC32 hash (test run) : 04305104
CRC32 hash : 04305104
CRC32 hash (skip zero) : 737F6A87
AccurateRip v1 signature : 17797405
AccurateRip v2 signature : 5F4ADC92
->Track not present in AccurateRip database.
Statistics
Read error : 0
Jitter error (maybe fixed) : 0
Retry sector count : 0
Damaged sector count : 0
Track 09
Filename : /rips/Nina Pedersen - Songs From The Top Of The World (2011) [FLAC]/09 Wintersong.flac
Pre-gap length : 00:03:00
Track gain : -6.05 dB
Peak : 0.973999
CRC32 hash (test run) : 530E94D7
CRC32 hash : 530E94D7
CRC32 hash (skip zero) : 53B6AD3F
AccurateRip v1 signature : F9E2C532
AccurateRip v2 signature : 64C8A656
->Track not present in AccurateRip database.
Statistics
Read error : 0
Jitter error (maybe fixed) : 0
Retry sector count : 0
Damaged sector count : 0
Track 10
Filename : /rips/Nina Pedersen - Songs From The Top Of The World (2011) [FLAC]/10 HГёgt FrГҐ Den Himmelske KlГҐra.flac
Pre-gap length : 00:03:00
Track gain : -5.46 dB
Peak : 0.748352
CRC32 hash (test run) : 592067A4
CRC32 hash : 592067A4
CRC32 hash (skip zero) : C3894BC2
AccurateRip v1 signature : 9323C5BA
AccurateRip v2 signature : A6AAA8D2
->Track not present in AccurateRip database.
Statistics
Read error : 0
Jitter error (maybe fixed) : 0
Retry sector count : 0
Damaged sector count : 0
No errors occurred
End of status report
-----BEGIN XLD SIGNATURE-----
x49xvihBA_ipOUC9gPSJ8oDlSQJKqeBrcqLawn7hTDG2b6iQ08orHmC6c2nOF73U0QVOc85Ktv2u5FYVSEV9_ab9Llv4Ym3wrcHmtqe
-----END XLD SIGNATURE-----
 
Содержание индексной карты (.CUE)
TITLE "Songs from the Top of the World"
PERFORMER "Nina Pedersen"
REM GENRE "Jazz"
REM DATE "2011"
REM DISCID 790BCA0A
REM REPLAYGAIN_ALBUM_GAIN -7.09 dB
REM REPLAYGAIN_ALBUM_PEAK 0.990112
FILE "01 - Songen Hennar Magnill.flac" WAVE
TRACK 01 AUDIO
TITLE "Songen Hennar Magnill"
ISRC ITD871114501
REM REPLAYGAIN_TRACK_GAIN -5.71 dB
REM REPLAYGAIN_TRACK_PEAK 0.990112
INDEX 01 00:00:00
TRACK 02 AUDIO
TITLE "En liten vise"
ISRC ITD871114502
REM REPLAYGAIN_TRACK_GAIN -6.82 dB
REM REPLAYGAIN_TRACK_PEAK 0.979156
INDEX 00 06:25:44
FILE "02 - En liten vise.flac" WAVE
INDEX 01 00:00:00
TRACK 03 AUDIO
TITLE "Jeg lagde meg sa silde"
ISRC ITD871114503
REM REPLAYGAIN_TRACK_GAIN -8.40 dB
REM REPLAYGAIN_TRACK_PEAK 0.961761
INDEX 00 07:22:74
FILE "03 - Jeg lagde meg sa silde.flac" WAVE
INDEX 01 00:00:00
TRACK 04 AUDIO
TITLE "Varvindar friska/Vardans"
ISRC ITD871114504
REM REPLAYGAIN_TRACK_GAIN -8.41 dB
REM REPLAYGAIN_TRACK_PEAK 0.982178
INDEX 00 04:42:31
FILE "04 - Varvindar friska,Vardans.flac" WAVE
INDEX 01 00:00:00
TRACK 05 AUDIO
TITLE "Kveld-sang for Blakken"
ISRC ITD871114505
REM REPLAYGAIN_TRACK_GAIN -5.53 dB
REM REPLAYGAIN_TRACK_PEAK 0.985626
INDEX 00 05:25:47
FILE "05 - Kveld-sang for Blakken.flac" WAVE
INDEX 01 00:00:00
TRACK 06 AUDIO
TITLE "Sneen daler stille"
ISRC ITD871114506
REM REPLAYGAIN_TRACK_GAIN -5.65 dB
REM REPLAYGAIN_TRACK_PEAK 0.987427
INDEX 00 05:48:08
FILE "06 - Sneen daler stille.flac" WAVE
INDEX 01 00:00:00
TRACK 07 AUDIO
TITLE "Eg ser deg utfor gluggen"
ISRC ITD871114507
REM REPLAYGAIN_TRACK_GAIN -6.77 dB
REM REPLAYGAIN_TRACK_PEAK 0.945038
INDEX 00 05:42:51
FILE "07 - Eg ser deg utfor gluggen.flac" WAVE
INDEX 01 00:00:00
TRACK 08 AUDIO
TITLE "Den fyrste song"
ISRC ITD871114508
REM REPLAYGAIN_TRACK_GAIN -4.53 dB
REM REPLAYGAIN_TRACK_PEAK 0.964203
INDEX 00 04:05:55
FILE "08 - Den fyrste song.flac" WAVE
INDEX 01 00:00:00
TRACK 09 AUDIO
TITLE "Wintersong"
ISRC ITD871114509
REM REPLAYGAIN_TRACK_GAIN -6.05 dB
REM REPLAYGAIN_TRACK_PEAK 0.973999
INDEX 00 03:41:64
FILE "09 - Wintersong.flac" WAVE
INDEX 01 00:00:00
TRACK 10 AUDIO
TITLE "Hogt fra den himmelske klara"
ISRC ITD871114510
REM REPLAYGAIN_TRACK_GAIN -5.46 dB
REM REPLAYGAIN_TRACK_PEAK 0.748352
INDEX 00 04:55:36
FILE "10 - Hogt fra den himmelske klara.flac" WAVE
INDEX 01 00:00:00
Скачивание доступно после регистрации!!
Приватный:
Нет (DHT включён)
Размер:
297.01 Мб (311,441,274 байт) » файлов: 16
Участники:
0 раздают, 0 качают (0 участников всего)
Внешние участники:
--- [ Обновить ]
07:41
6
Нет комментариев. Ваш будет первым!