Поиск

(Vocal Jazz) [CD] Nina Pedersen - So Far So Good - 2014, FLAC (tracks+.cue), lossless

(Vocal Jazz) [CD] Nina Pedersen - So Far So Good - 2014, FLAC (tracks+.cue), lossless
Треклист:
Nina Pedersen - So Far So Good
Жанр: Vocal Jazz
Носитель: CD
Страна-производитель диска (релиза): Норвегия
Год издания: 2014
Издатель (лейбл): Sweet Morning Records
Номер по каталогу: SMRCD06
Аудиокодек: FLAC (*.flac)
Тип рипа: tracks+.cue
Битрейт аудио: lossless
Продолжительность: 45:18
Источник (релизер): jazzambazzador
Наличие сканов в содержимом раздачи: нет
Треклист:
01. The Moon and I (Pedersen) - 4:38
02. So Far So Good (Pedersen) - 4:53
03. Veien Hjem (Pedersen) - 3:21
04. You Must Believe in Spring (Bergman-Bergman-Legrand) - 4:45
05. Lullaby (Pedersen) - 4:33
06. Por Toda a Minha Vida (DeMoraes-Jobim) - 3:19
07. You Were There (Pedersen) - 5:22
08. Grodans Sang (Beskow-Tegner) - 5:44
09. This Must Be Love (Pedersen) - 3:49
10. Words Unspoken (Pedersen) - 4:54
Состав:
Nina Pedersen - vocals
Pierpaolo Principato - piano
Marco Loddo - double bass
Alessandro Marzi - drums, percussion
Nicola Stilo - flute (#1,7,10), guitar (#7)
Luca Aquino (#2,8) - trumpet, flugelhorn
Alessandro Tedesco - trombone (#3)
Recorded at Extrabeat Studio, Rome, Italy.
 
Лог создания рипа
X Lossless Decoder version 20160920 (149.2)
XLD extraction logfile from 2018-05-28 19:25:59 +0200
Nina Pedersen / So Far So Good
Used drive : HL-DT-ST DVDRW GX40N (revision RQ00)
Media type : Pressed CD
Ripper mode : XLD Secure Ripper
Disable audio cache : OK for the drive with a cache less than 1375KiB
Make use of C2 pointers : NO
Read offset correction : 6
Max retry count : 20
Gap status : Analyzed, Appended (except HTOA)
TOC of the extracted CD
Track | Start | Length | Start sector | End sector
---------------------------------------------------------
1 | 00:00:00 | 04:38:37 | 0 | 20886
2 | 04:38:37 | 04:52:70 | 20887 | 42856
3 | 09:31:32 | 03:20:50 | 42857 | 57906
4 | 12:52:07 | 04:45:28 | 57907 | 79309
5 | 17:37:35 | 04:32:71 | 79310 | 99780
6 | 22:10:31 | 03:19:26 | 99781 | 114731
7 | 25:29:57 | 05:22:09 | 114732 | 138890
8 | 30:51:66 | 05:44:05 | 138891 | 164695
9 | 36:35:71 | 03:48:47 | 164696 | 181842
10 | 40:24:43 | 04:54:09 | 181843 | 203901
AccurateRip Summary
Disc not found in AccurateRip DB.
All Tracks
Album gain : -5.73 dB
Peak : 0.981598
Statistics
Read error : 0
Jitter error (maybe fixed) : 0
Retry sector count : 0
Damaged sector count : 0
Track 01
Filename : /rips/Nina Pedersen - So Far So Good (2014) [FLAC]/01 The Moon And I.flac
Pre-gap length : 00:02:00
Track gain : -6.10 dB
Peak : 0.977844
CRC32 hash (test run) : 5402E5D5
CRC32 hash : 5402E5D5
CRC32 hash (skip zero) : D8094DC6
AccurateRip v1 signature : B592C4BA
AccurateRip v2 signature : AC118AFD
->Track not present in AccurateRip database.
Statistics
Read error : 0
Jitter error (maybe fixed) : 0
Retry sector count : 0
Damaged sector count : 0
Track 02
Filename : /rips/Nina Pedersen - So Far So Good (2014) [FLAC]/02 So Far So Good.flac
Pre-gap length : 00:02:00
Track gain : -6.00 dB
Peak : 0.974304
CRC32 hash (test run) : ACFA25A5
CRC32 hash : ACFA25A5
CRC32 hash (skip zero) : A38A4A64
AccurateRip v1 signature : 7BD835FA
AccurateRip v2 signature : 2E4F0003
->Track not present in AccurateRip database.
Statistics
Read error : 0
Jitter error (maybe fixed) : 0
Retry sector count : 0
Damaged sector count : 0
Track 03
Filename : /rips/Nina Pedersen - So Far So Good (2014) [FLAC]/03 Veien Hjem.flac
Pre-gap length : 00:02:00
Track gain : -5.81 dB
Peak : 0.978699
CRC32 hash (test run) : ABE305CD
CRC32 hash : ABE305CD
CRC32 hash (skip zero) : 43C39D53
AccurateRip v1 signature : 328FFAD2
AccurateRip v2 signature : EC26489B
->Track not present in AccurateRip database.
Statistics
Read error : 0
Jitter error (maybe fixed) : 0
Retry sector count : 0
Damaged sector count : 0
Track 04
Filename : /rips/Nina Pedersen - So Far So Good (2014) [FLAC]/04 You Must Believe In Spring.flac
Pre-gap length : 00:02:00
Track gain : -5.62 dB
Peak : 0.981598
CRC32 hash (test run) : 01C4A15A
CRC32 hash : 01C4A15A
CRC32 hash (skip zero) : 9EA38235
AccurateRip v1 signature : CEC92B91
AccurateRip v2 signature : FD104D56
->Track not present in AccurateRip database.
Statistics
Read error : 0
Jitter error (maybe fixed) : 0
Retry sector count : 0
Damaged sector count : 0
Track 05
Filename : /rips/Nina Pedersen - So Far So Good (2014) [FLAC]/05 Lullaby.flac
Pre-gap length : 00:02:00
Track gain : -4.04 dB
Peak : 0.964325
CRC32 hash (test run) : 9AB814DE
CRC32 hash : 9AB814DE
CRC32 hash (skip zero) : 862C12CF
AccurateRip v1 signature : EFC0C7E4
AccurateRip v2 signature : C5C44C61
->Track not present in AccurateRip database.
Statistics
Read error : 0
Jitter error (maybe fixed) : 0
Retry sector count : 0
Damaged sector count : 0
Track 06
Filename : /rips/Nina Pedersen - So Far So Good (2014) [FLAC]/06 Por Toda A Minha Vida.flac
Pre-gap length : 00:02:00
Track gain : -6.50 dB
Peak : 0.978180
CRC32 hash (test run) : B205F5C3
CRC32 hash : B205F5C3
CRC32 hash (skip zero) : 2A93B543
AccurateRip v1 signature : FD16DCD6
AccurateRip v2 signature : CB3B918E
->Track not present in AccurateRip database.
Statistics
Read error : 0
Jitter error (maybe fixed) : 0
Retry sector count : 0
Damaged sector count : 0
Track 07
Filename : /rips/Nina Pedersen - So Far So Good (2014) [FLAC]/07 You Were There.flac
Pre-gap length : 00:02:00
Track gain : -5.84 dB
Peak : 0.976593
CRC32 hash (test run) : 57E2DCC7
CRC32 hash : 57E2DCC7
CRC32 hash (skip zero) : 830DC335
AccurateRip v1 signature : 567BF80A
AccurateRip v2 signature : FAC40AE6
->Track not present in AccurateRip database.
Statistics
Read error : 0
Jitter error (maybe fixed) : 0
Retry sector count : 0
Damaged sector count : 0
Track 08
Filename : /rips/Nina Pedersen - So Far So Good (2014) [FLAC]/08 Grodans SГҐng.flac
Pre-gap length : 00:02:00
Track gain : -5.77 dB
Peak : 0.976990
CRC32 hash (test run) : 827BE0F1
CRC32 hash : 827BE0F1
CRC32 hash (skip zero) : 4306FE1A
AccurateRip v1 signature : C8FCA0A4
AccurateRip v2 signature : 23554002
->Track not present in AccurateRip database.
Statistics
Read error : 0
Jitter error (maybe fixed) : 0
Retry sector count : 0
Damaged sector count : 0
Track 09
Filename : /rips/Nina Pedersen - So Far So Good (2014) [FLAC]/09 This Must Be Love.flac
Pre-gap length : 00:02:00
Track gain : -4.81 dB
Peak : 0.979034
CRC32 hash (test run) : 30BCF7B9
CRC32 hash : 30BCF7B9
CRC32 hash (skip zero) : FBA18794
AccurateRip v1 signature : 9339A8B8
AccurateRip v2 signature : 7887BDA6
->Track not present in AccurateRip database.
Statistics
Read error : 0
Jitter error (maybe fixed) : 0
Retry sector count : 0
Damaged sector count : 0
Track 10
Filename : /rips/Nina Pedersen - So Far So Good (2014) [FLAC]/10 Words Unspoken.flac
Pre-gap length : 00:02:00
Track gain : -5.48 dB
Peak : 0.978271
CRC32 hash (test run) : 54A22EA9
CRC32 hash : 54A22EA9
CRC32 hash (skip zero) : C99D46DA
AccurateRip v1 signature : 50804B49
AccurateRip v2 signature : A2EDC95C
->Track not present in AccurateRip database.
Statistics
Read error : 0
Jitter error (maybe fixed) : 0
Retry sector count : 0
Damaged sector count : 0
No errors occurred
End of status report
-----BEGIN XLD SIGNATURE-----
3jV2FDJJvN.43iyXN1Or6GWy.msGO.XUmsyQUqTHu_jfG5p0jDDbNTUr.M0UVsch0wY2ToKGYR7yl_gVuzRDcIR_IAmJmvgGHVFGvxq
-----END XLD SIGNATURE-----
 
Содержание индексной карты (.CUE)
TITLE "So Far So Good"
PERFORMER "Nina Pedersen"
REM GENRE "Jazz"
REM DATE "2014"
REM DISCID 810A9E0A
REM REPLAYGAIN_ALBUM_GAIN -5.73 dB
REM REPLAYGAIN_ALBUM_PEAK 0.981598
FILE "01 - The Moon and I.flac" WAVE
TRACK 01 AUDIO
TITLE "The Moon and I"
ISRC NOSMR1401010
REM REPLAYGAIN_TRACK_GAIN -6.10 dB
REM REPLAYGAIN_TRACK_PEAK 0.977844
INDEX 01 00:00:00
TRACK 02 AUDIO
TITLE "So Far So Good"
ISRC NOSMR1401020
REM REPLAYGAIN_TRACK_GAIN -6.00 dB
REM REPLAYGAIN_TRACK_PEAK 0.974304
INDEX 00 04:36:37
FILE "02 - So Far So Good.flac" WAVE
INDEX 01 00:00:00
TRACK 03 AUDIO
TITLE "Veien Hjem"
ISRC NOSMR1401030
REM REPLAYGAIN_TRACK_GAIN -5.81 dB
REM REPLAYGAIN_TRACK_PEAK 0.978699
INDEX 00 04:50:70
FILE "03 - Veien Hjem.flac" WAVE
INDEX 01 00:00:00
TRACK 04 AUDIO
TITLE "You Must Believe in Spring"
ISRC NOSMR1401040
REM REPLAYGAIN_TRACK_GAIN -5.62 dB
REM REPLAYGAIN_TRACK_PEAK 0.981598
INDEX 00 03:18:50
FILE "04 - You Must Believe in Spring.flac" WAVE
INDEX 01 00:00:00
TRACK 05 AUDIO
TITLE "Lullaby"
ISRC NOSMR1401050
REM REPLAYGAIN_TRACK_GAIN -4.04 dB
REM REPLAYGAIN_TRACK_PEAK 0.964325
INDEX 00 04:43:28
FILE "05 - Lullaby.flac" WAVE
INDEX 01 00:00:00
TRACK 06 AUDIO
TITLE "Por Toda a Minha Vida"
ISRC NOSMR1401060
REM REPLAYGAIN_TRACK_GAIN -6.50 dB
REM REPLAYGAIN_TRACK_PEAK 0.978180
INDEX 00 04:30:71
FILE "06 - Por Toda a Minha Vida.flac" WAVE
INDEX 01 00:00:00
TRACK 07 AUDIO
TITLE "You Were There"
ISRC NOSMR1401070
REM REPLAYGAIN_TRACK_GAIN -5.84 dB
REM REPLAYGAIN_TRACK_PEAK 0.976593
INDEX 00 03:17:26
FILE "07 - You Were There.flac" WAVE
INDEX 01 00:00:00
TRACK 08 AUDIO
TITLE "Grodans Sang"
ISRC NOSMR1401080
REM REPLAYGAIN_TRACK_GAIN -5.77 dB
REM REPLAYGAIN_TRACK_PEAK 0.976990
INDEX 00 05:20:09
FILE "08 - Grodans Sang.flac" WAVE
INDEX 01 00:00:00
TRACK 09 AUDIO
TITLE "This Must Be Love"
ISRC NOSMR1401090
REM REPLAYGAIN_TRACK_GAIN -4.81 dB
REM REPLAYGAIN_TRACK_PEAK 0.979034
INDEX 00 05:42:05
FILE "09 - This Must Be Love.flac" WAVE
INDEX 01 00:00:00
TRACK 10 AUDIO
TITLE "Words Unspoken"
ISRC NOSMR1401100
REM REPLAYGAIN_TRACK_GAIN -5.48 dB
REM REPLAYGAIN_TRACK_PEAK 0.978271
INDEX 00 03:46:47
FILE "10 - Words Unspoken.flac" WAVE
INDEX 01 00:00:00
Скачивание доступно после регистрации!!
Приватный:
Нет (DHT включён)
Размер:
275.76 Мб (289,151,062 байт) » файлов: 16
Участники:
0 раздают, 0 качают (0 участников всего)
Внешние участники:
3 раздают, 1 качают (4 участников всего) [ Обновить ]
07:41
13
Нет комментариев. Ваш будет первым!