Поиск

(Vocal Jazz) [CD] Nina Pedersen - Eyes Wide Open - 2017, FLAC (tracks+.cue), lossless

(Vocal Jazz) [CD] Nina Pedersen - Eyes Wide Open - 2017, FLAC (tracks+.cue), lossless
Треклист:
Nina Pedersen - Eyes Wide Open
Жанр: Vocal Jazz
Носитель: CD
Страна-производитель диска (релиза): Норвегия
Год издания: 2017
Издатель (лейбл): Losen Records
Номер по каталогу: LOS 184-2
Аудиокодек: FLAC (*.flac)
Тип рипа: tracks+.cue
Битрейт аудио: lossless
Продолжительность: 40:55
Источник (релизер): jazzambazzador
Наличие сканов в содержимом раздачи: нет
Треклист:
01. Eyes Wide Open (Pedersen) - 4:28
02. Ribbon of Sand (Surman-Krog) - 5:25
03. Granny's Waltz (Pedersen) - 4:11
04. Now I'm Here (Pedersen) - 6:04
05. These Empty Walls (Pedersen) - 4:35
06. Mrs. Nilsen (Pedersen) - 6:41
07. Me, Myself & I (Pedersen) - 3:56
08. Mother and Son (Pedersen) - 5:35
Состав:
Nina Pedersen - vocals
Pierpaolo Principato - piano, keyboards
Marco Loddo - double bass
Giampaolo Scatozza - drums, live electronics
Aldo Bassi - trumpet (#2,3)
Paolo Innarella - saxophone (#6,8)
Recorded at Extrabeat Studio Rome, Italy on June 22 and July 3, 2015.
 
Лог создания рипа
X Lossless Decoder version 20160920 (149.2)
XLD extraction logfile from 2018-06-01 20:36:03 +0200
Nina Pedersen / Eyes Wide Open
Used drive : HL-DT-ST DVDRW GX40N (revision RQ00)
Media type : Pressed CD
Ripper mode : XLD Secure Ripper
Disable audio cache : OK for the drive with a cache less than 1375KiB
Make use of C2 pointers : NO
Read offset correction : 6
Max retry count : 20
Gap status : Analyzed, Appended (except HTOA)
TOC of the extracted CD
Track | Start | Length | Start sector | End sector
---------------------------------------------------------
1 | 00:00:00 | 04:28:11 | 0 | 20110
2 | 04:28:11 | 05:24:51 | 20111 | 44461
3 | 09:52:62 | 04:11:17 | 44462 | 63303
4 | 14:04:04 | 06:04:29 | 63304 | 90632
5 | 20:08:33 | 04:34:42 | 90633 | 111224
6 | 24:43:00 | 06:41:25 | 111225 | 141324
7 | 31:24:25 | 03:56:31 | 141325 | 159055
8 | 35:20:56 | 05:35:06 | 159056 | 184186
AccurateRip Summary
Disc not found in AccurateRip DB.
All Tracks
Album gain : -6.04 dB
Peak : 0.983002
Statistics
Read error : 0
Jitter error (maybe fixed) : 0
Retry sector count : 0
Damaged sector count : 0
Track 01
Filename : /rips/Nina Pedersen - Eyes Wide Open (2017) [FLAC]/01 Eyes Wide Open.flac
Pre-gap length : 00:02:00
Track gain : -5.30 dB
Peak : 0.983002
CRC32 hash (test run) : BDC0E5F1
CRC32 hash : BDC0E5F1
CRC32 hash (skip zero) : DF062DFB
AccurateRip v1 signature : EC1A92CE
AccurateRip v2 signature : 2A92B750
->Track not present in AccurateRip database.
Statistics
Read error : 0
Jitter error (maybe fixed) : 0
Retry sector count : 0
Damaged sector count : 0
Track 02
Filename : /rips/Nina Pedersen - Eyes Wide Open (2017) [FLAC]/02 Ribbon Of Sand.flac
Pre-gap length : 00:02:00
Track gain : -5.81 dB
Peak : 0.983002
CRC32 hash (test run) : B68A00F1
CRC32 hash : B68A00F1
CRC32 hash (skip zero) : B281DAA8
AccurateRip v1 signature : 9DC5DEF8
AccurateRip v2 signature : B60476D4
->Track not present in AccurateRip database.
Statistics
Read error : 0
Jitter error (maybe fixed) : 0
Retry sector count : 0
Damaged sector count : 0
Track 03
Filename : /rips/Nina Pedersen - Eyes Wide Open (2017) [FLAC]/03 Granny's Waltz.flac
Pre-gap length : 00:02:00
Track gain : -5.90 dB
Peak : 0.983002
CRC32 hash (test run) : EB3FDBCE
CRC32 hash : EB3FDBCE
CRC32 hash (skip zero) : C6554A73
AccurateRip v1 signature : B284FBE5
AccurateRip v2 signature : DFD78289
->Track not present in AccurateRip database.
Statistics
Read error : 0
Jitter error (maybe fixed) : 0
Retry sector count : 0
Damaged sector count : 0
Track 04
Filename : /rips/Nina Pedersen - Eyes Wide Open (2017) [FLAC]/04 Now I'm Here.flac
Pre-gap length : 00:02:00
Track gain : -2.30 dB
Peak : 0.983002
CRC32 hash (test run) : 2B0915A9
CRC32 hash : 2B0915A9
CRC32 hash (skip zero) : 6DCF7492
AccurateRip v1 signature : 0C082C24
AccurateRip v2 signature : FB53E8DE
->Track not present in AccurateRip database.
Statistics
Read error : 0
Jitter error (maybe fixed) : 0
Retry sector count : 0
Damaged sector count : 0
Track 05
Filename : /rips/Nina Pedersen - Eyes Wide Open (2017) [FLAC]/05 These Empty Walls.flac
Pre-gap length : 00:02:00
Track gain : -6.04 dB
Peak : 0.983002
CRC32 hash (test run) : 128FC2A4
CRC32 hash : 128FC2A4
CRC32 hash (skip zero) : 5D1AC815
AccurateRip v1 signature : C3878534
AccurateRip v2 signature : 29DD729B
->Track not present in AccurateRip database.
Statistics
Read error : 0
Jitter error (maybe fixed) : 0
Retry sector count : 0
Damaged sector count : 0
Track 06
Filename : /rips/Nina Pedersen - Eyes Wide Open (2017) [FLAC]/06 Mrs. Nilsen.flac
Pre-gap length : 00:02:00
Track gain : -6.85 dB
Peak : 0.983002
CRC32 hash (test run) : 584A0C39
CRC32 hash : 584A0C39
CRC32 hash (skip zero) : 6F29406F
AccurateRip v1 signature : 849BA096
AccurateRip v2 signature : EEFC8402
->Track not present in AccurateRip database.
Statistics
Read error : 0
Jitter error (maybe fixed) : 0
Retry sector count : 0
Damaged sector count : 0
Track 07
Filename : /rips/Nina Pedersen - Eyes Wide Open (2017) [FLAC]/07 Me, Myself And I.flac
Pre-gap length : 00:02:00
Track gain : -4.92 dB
Peak : 0.983002
CRC32 hash (test run) : B00CF74A
CRC32 hash : B00CF74A
CRC32 hash (skip zero) : 4E4EF83B
AccurateRip v1 signature : 0049854A
AccurateRip v2 signature : D8A7B5A3
->Track not present in AccurateRip database.
Statistics
Read error : 0
Jitter error (maybe fixed) : 0
Retry sector count : 0
Damaged sector count : 0
Track 08
Filename : /rips/Nina Pedersen - Eyes Wide Open (2017) [FLAC]/08 Mother And son.flac
Pre-gap length : 00:02:00
Track gain : -6.77 dB
Peak : 0.983002
CRC32 hash (test run) : 37F7ECCD
CRC32 hash : 37F7ECCD
CRC32 hash (skip zero) : EB6144B3
AccurateRip v1 signature : 67EB19E2
AccurateRip v2 signature : 02E25865
->Track not present in AccurateRip database.
Statistics
Read error : 0
Jitter error (maybe fixed) : 0
Retry sector count : 0
Damaged sector count : 0
No errors occurred
End of status report
-----BEGIN XLD SIGNATURE-----
28PkwXWI7W_QzQahACCO4EzgT13xq99.czswUTt7w9j.D9blwgnRhvJUxEgDUex8C8GETb9wjl1s.SvW2czO0n1VeycgrN1YsyQrwsS
-----END XLD SIGNATURE-----
 
Содержание индексной карты (.CUE)
TITLE "Eyes Wide Open"
PERFORMER "Nina Pedersen"
CATALOG 7090025831843
REM GENRE "Jazz"
REM DATE "2017"
REM DISCID 63099708
REM REPLAYGAIN_ALBUM_GAIN -6.04 dB
REM REPLAYGAIN_ALBUM_PEAK 0.983002
FILE "01 - Eyes Wide Open.flac" WAVE
TRACK 01 AUDIO
TITLE "Eyes Wide Open"
ISRC NO2NJ1784010
REM REPLAYGAIN_TRACK_GAIN -5.30 dB
REM REPLAYGAIN_TRACK_PEAK 0.983002
INDEX 01 00:00:00
TRACK 02 AUDIO
TITLE "Ribbon of Sand"
ISRC NO2NJ1784020
REM REPLAYGAIN_TRACK_GAIN -5.81 dB
REM REPLAYGAIN_TRACK_PEAK 0.983002
INDEX 00 04:26:11
FILE "02 - Ribbon of Sand.flac" WAVE
INDEX 01 00:00:00
TRACK 03 AUDIO
TITLE "Granny's Waltz"
ISRC NO2NJ1784030
REM REPLAYGAIN_TRACK_GAIN -5.90 dB
REM REPLAYGAIN_TRACK_PEAK 0.983002
INDEX 00 05:22:51
FILE "03 - Granny's Waltz.flac" WAVE
INDEX 01 00:00:00
TRACK 04 AUDIO
TITLE "Now I'm Here"
ISRC NO2NJ1784040
REM REPLAYGAIN_TRACK_GAIN -2.30 dB
REM REPLAYGAIN_TRACK_PEAK 0.983002
INDEX 00 04:09:17
FILE "04 - Now I'm Here.flac" WAVE
INDEX 01 00:00:00
TRACK 05 AUDIO
TITLE "These Empty Walls"
ISRC NO2NJ1784050
REM REPLAYGAIN_TRACK_GAIN -6.04 dB
REM REPLAYGAIN_TRACK_PEAK 0.983002
INDEX 00 06:02:29
FILE "05 - These Empty Walls.flac" WAVE
INDEX 01 00:00:00
TRACK 06 AUDIO
TITLE "Mrs. Nilsen"
ISRC NO2NJ1784060
REM REPLAYGAIN_TRACK_GAIN -6.85 dB
REM REPLAYGAIN_TRACK_PEAK 0.983002
INDEX 00 04:32:42
FILE "06 - Mrs. Nilsen.flac" WAVE
INDEX 01 00:00:00
TRACK 07 AUDIO
TITLE "Me, Myself & I"
ISRC NO2NJ1784070
REM REPLAYGAIN_TRACK_GAIN -4.92 dB
REM REPLAYGAIN_TRACK_PEAK 0.983002
INDEX 00 06:39:25
FILE "07 - Me, Myself & I.flac" WAVE
INDEX 01 00:00:00
TRACK 08 AUDIO
TITLE "Mother and Son"
ISRC NO2NJ1784080
REM REPLAYGAIN_TRACK_GAIN -6.77 dB
REM REPLAYGAIN_TRACK_PEAK 0.983002
INDEX 00 03:54:31
FILE "08 - Mother and Son.flac" WAVE
INDEX 01 00:00:00
 
Об альбоме (сборнике)
“Eyes Wide Open” is her first album for “Losen Records”, and Nina Pedersen is confirming her increasing interest for composition and songwriting. “Eyes Wide Open” is a modern, laidback and relaxed album. Some electronic elements are introduced by the new entry, the drummer “Giampaolo Scatozza” which entered the group last year. The pianist Pierpaolo Principato introduces keyboards on several tracks and Marco Loddo is solidly supporting with bass loops. Paolo Innarella is delivering wonderful saxophone solos on Mrs. Nilsen and the ballad “Mother & Son” and Aldo Bassi is featuring with his trumpet on “Granny’s Waltz” and “Ribbon of Sand”, the only track not signed Nina Pedersen. “Ribbon Of Sand” is signed John Surman and Karin Krog which also wrote these liner-notes for the album:
“IT WAS SUCH A JOY LISTENING TO NINA’S ALBUM. THE MORE I LISTENED TO IT, THE MORE I ENJOYED IT. THESE WERE MELODIC SONGS WHICH TOLD A STORY, SUNG EXPRESSIVELY BY NINA’S DARK AND MATURE VOICE. THE BAND IS EXCELLENT WITH A TOTALLY CONTEMPORARY FEEL, AND OBVIOUSLY ENJOYING PLAYING NINA’S INVENTIVE COMPOSITIONS.
A TOP CLASS ALBUM.”
Приватный:
Нет (DHT включён)
Размер:
242.33 Мб (254,101,538 байт) » файлов: 14
Участники:
0 раздают, 0 качают (0 участников всего)
Внешние участники:
--- [ Обновить ]
07:40
8
Нет комментариев. Ваш будет первым!