Поиск

(Vocal Jazz) [CD] April Stevens - Teach Me Tiger! (1960) - 2012 {TOCJ-9745}, FLAC (tracks), lossless

(Vocal Jazz) [CD] April Stevens - Teach Me Tiger! (1960) - 2012 {TOCJ-9745}, FLAC (tracks), lossless
Треклист:
April Stevens - Teach Me Tiger! (1960) Жанр: Vocal Jazz
Носитель: CD
Страна-производитель диска (релиза): Japan
Год издания: 2012
Издатель (лейбл): Liberty/EMI Music Japan
Номер по каталогу: TOCJ-9745
Аудиокодек: FLAC (*.flac)
Тип рипа: tracks
Битрейт аудио: lossless
Продолжительность: 28:59
Источник (релизер): ruskaval
Наличие сканов в содержимом раздачи: да
Треклист:
01. Do It Again (2:42)
02. Teach Me Tiger (2:25)
03. I Want A Lip (2:35)
04. In Other Words (Fly Me To The Moon) (2:29)
05. I Get Ideas (2:35)
06. Talk To Me (2:20)
07. I'm In Love Again (2:21)
08. That's My Name (2:04)
09. I'm Making Believe (2:18)
10. I'll Wait For Your Love (2:41)
11. It Can't Be Wrong (2:12)
12. When My Baby Smiles At Me (2:16)
 
 
Об альбоме
Teach Me Tiger! represents some kind of absurd apotheosis in post-Julie London pop seduction – April Stevens' vocals are so breathy that one can't help but wonder whether the poor girl spent the recording session hooked up to a respirator machine. Calculated naughtiness that's ultimately as innocent as a lamb, the album luxuriates in the double entendres and nudge-nudge-wink-wink eroticism of a simpler time. Henri René's lush, knowing arrangements perfectly complement Stevens' starry-eyed interpretations of songs like "Love Kitten," "You and Only You," and "It Can't Be Wrong," adding a much-needed touch of truly adult sophistication to the proceedings.

 
Лог создания рипа
Exact Audio Copy V1.0 beta 3 from 29. August 2011
EAC extraction logfile from 20. August 2013, 0:34
April Stevens / Teach Me Tiger!
Used drive : PLEXTOR CD-R PX-W2410A Adapter: 1 ID: 0
Read mode : Secure
Utilize accurate stream : Yes
Defeat audio cache : Yes
Make use of C2 pointers : No
Read offset correction : 98
Overread into Lead-In and Lead-Out : No
Fill up missing offset samples with silence : Yes
Delete leading and trailing silent blocks : No
Null samples used in CRC calculations : Yes
Used interface : Native Win32 interface for Win NT & 2000
Gap handling : Appended to previous track
Used output format : User Defined Encoder
Selected bitrate : 256 kBit/s
Quality : High
Add ID3 tag : No
Command line compressor : C:\Program Files\Exact Audio Copy\FLAC\FLAC.EXE
Additional command line options : -8 -V -T "ARTIST=%artist%" -T "TITLE=%title%" -T "ALBUM=%albumtitle%" -T "DATE=%year%" -T "TRACKNUMBER=%tracknr%" -T "TOTALTRACKS=%numtracks%" -T "GENRE=%genre%" -T "ALBUMARTIST=%albumartist%" -T "ALBUM ARTIST=%albumartist%" -T "COMMENT=EAC Secure Mode, Test & Copy, AccurateRip, FLAC -8" %source%
TOC of the extracted CD
Track | Start | Length | Start sector | End sector
---------------------------------------------------------
1 | 0:00.00 | 2:42.31 | 0 | 12180
2 | 2:42.31 | 2:25.03 | 12181 | 23058
3 | 5:07.34 | 2:35.15 | 23059 | 34698
4 | 7:42.49 | 2:29.26 | 34699 | 45899
5 | 10:12.00 | 2:34.62 | 45900 | 57511
6 | 12:46.62 | 2:20.24 | 57512 | 68035
7 | 15:07.11 | 2:21.34 | 68036 | 78644
8 | 17:28.45 | 2:04.02 | 78645 | 87946
9 | 19:32.47 | 2:17.70 | 87947 | 98291
10 | 21:50.42 | 2:40.73 | 98292 | 110364
11 | 24:31.40 | 2:11.42 | 110365 | 120231
12 | 26:43.07 | 2:16.26 | 120232 | 130457
Track 1
Filename D:\EAC\_.[CD]\April Stevens - Teach Me Tiger! (1961) [CD] {2012 EMI JP TOCJ-9745}\01 - Do It Again.wav
Pre-gap length 0:00:02.00
Peak level 98.8 %
Extraction speed 1.8 X
Track quality 100.0 %
Test CRC E9B486A0
Copy CRC E9B486A0
Track not present in AccurateRip database
Copy OK
Track 2
Filename D:\EAC\_.[CD]\April Stevens - Teach Me Tiger! (1961) [CD] {2012 EMI JP TOCJ-9745}\02 - Teach Me Tiger.wav
Pre-gap length 0:00:02.43
Peak level 98.8 %
Extraction speed 1.8 X
Track quality 100.0 %
Test CRC 017B8577
Copy CRC 017B8577
Track not present in AccurateRip database
Copy OK
Track 3
Filename D:\EAC\_.[CD]\April Stevens - Teach Me Tiger! (1961) [CD] {2012 EMI JP TOCJ-9745}\03 - I Want a Lip.wav
Pre-gap length 0:00:02.43
Peak level 98.8 %
Extraction speed 1.8 X
Track quality 100.0 %
Test CRC 69E14F31
Copy CRC 69E14F31
Track not present in AccurateRip database
Copy OK
Track 4
Filename D:\EAC\_.[CD]\April Stevens - Teach Me Tiger! (1961) [CD] {2012 EMI JP TOCJ-9745}\04 - In Other Words (Fly Me to the Moon).wav
Pre-gap length 0:00:02.43
Peak level 98.8 %
Extraction speed 1.8 X
Track quality 100.0 %
Test CRC 67F62021
Copy CRC 67F62021
Track not present in AccurateRip database
Copy OK
Track 5
Filename D:\EAC\_.[CD]\April Stevens - Teach Me Tiger! (1961) [CD] {2012 EMI JP TOCJ-9745}\05 - I Get Ideas.wav
Pre-gap length 0:00:02.44
Peak level 98.8 %
Extraction speed 1.8 X
Track quality 100.0 %
Test CRC 85249D4A
Copy CRC 85249D4A
Track not present in AccurateRip database
Copy OK
Track 6
Filename D:\EAC\_.[CD]\April Stevens - Teach Me Tiger! (1961) [CD] {2012 EMI JP TOCJ-9745}\06 - Talk To Me.wav
Pre-gap length 0:00:02.44
Peak level 96.5 %
Extraction speed 1.8 X
Track quality 100.0 %
Test CRC 25399AC0
Copy CRC 25399AC0
Track not present in AccurateRip database
Copy OK
Track 7
Filename D:\EAC\_.[CD]\April Stevens - Teach Me Tiger! (1961) [CD] {2012 EMI JP TOCJ-9745}\07 - I'm In Love Again.wav
Pre-gap length 0:00:02.43
Peak level 98.8 %
Extraction speed 1.8 X
Track quality 100.0 %
Test CRC 0378A4BB
Copy CRC 0378A4BB
Track not present in AccurateRip database
Copy OK
Track 8
Filename D:\EAC\_.[CD]\April Stevens - Teach Me Tiger! (1961) [CD] {2012 EMI JP TOCJ-9745}\08 - That's My Name.wav
Pre-gap length 0:00:02.43
Peak level 98.8 %
Extraction speed 1.8 X
Track quality 100.0 %
Test CRC 64AEC8B6
Copy CRC 64AEC8B6
Track not present in AccurateRip database
Copy OK
Track 9
Filename D:\EAC\_.[CD]\April Stevens - Teach Me Tiger! (1961) [CD] {2012 EMI JP TOCJ-9745}\09 - I'm Making Believe.wav
Pre-gap length 0:00:02.43
Peak level 95.9 %
Extraction speed 1.8 X
Track quality 100.0 %
Test CRC 210BD560
Copy CRC 210BD560
Track not present in AccurateRip database
Copy OK
Track 10
Filename D:\EAC\_.[CD]\April Stevens - Teach Me Tiger! (1961) [CD] {2012 EMI JP TOCJ-9745}\10 - I'll Wait For Your Love.wav
Pre-gap length 0:00:02.43
Peak level 98.8 %
Extraction speed 1.8 X
Track quality 99.9 %
Test CRC 44F7E4D2
Copy CRC 44F7E4D2
Track not present in AccurateRip database
Copy OK
Track 11
Filename D:\EAC\_.[CD]\April Stevens - Teach Me Tiger! (1961) [CD] {2012 EMI JP TOCJ-9745}\11 - It Can't Be Wrong.wav
Pre-gap length 0:00:02.43
Peak level 98.8 %
Extraction speed 1.8 X
Track quality 100.0 %
Test CRC 41A9872B
Copy CRC 41A9872B
Track not present in AccurateRip database
Copy OK
Track 12
Filename D:\EAC\_.[CD]\April Stevens - Teach Me Tiger! (1961) [CD] {2012 EMI JP TOCJ-9745}\12 - When My Baby Smiles At Me.wav
Pre-gap length 0:00:02.43
Peak level 98.8 %
Extraction speed 1.3 X
Track quality 100.0 %
Test CRC 135C40BF
Copy CRC 135C40BF
Track not present in AccurateRip database
Copy OK
None of the tracks are present in the AccurateRip database
No errors occurred
End of status report
---- CUETools DB Plugin V2.1.3
[CTDB TOCID: 55ZurYoUXw3ird2Fc8Z2cZaafRI-] found, Submit result: 55ZurYoUXw3ird2Fc8Z2cZaafRI- has been confirmed
[731426f8] (1/1) Accurately ripped
==== Log checksum EF26E1C995F95AEF76A59A781231D31CF002AB0C48E201C73670ACB23643A1A7 ====
 
Содержание индексной карты (.CUE)
REM GENRE Vocal
REM DATE 1960
REM DISCID 8E06CB0C
REM COMMENT "ExactAudioCopy v1.0b3"
PERFORMER "April Stevens"
TITLE "Teach Me Tiger!"
FILE "01 - Do It Again.wav" WAVE
TRACK 01 AUDIO
TITLE "Do It Again"
PERFORMER "April Stevens"
INDEX 01 00:00:00
TRACK 02 AUDIO
TITLE "Teach Me Tiger"
PERFORMER "April Stevens"
INDEX 00 02:39:63
FILE "02 - Teach Me Tiger.wav" WAVE
INDEX 01 00:00:00
TRACK 03 AUDIO
TITLE "I Want A Lip"
PERFORMER "April Stevens"
INDEX 00 02:22:35
FILE "03 - I Want A Lip.wav" WAVE
INDEX 01 00:00:00
TRACK 04 AUDIO
TITLE "In Other Words (Fly Me To The Moon)"
PERFORMER "April Stevens"
INDEX 00 02:32:47
FILE "04 - In Other Words (Fly Me To The Moon).wav" WAVE
INDEX 01 00:00:00
TRACK 05 AUDIO
TITLE "I Get Ideas"
PERFORMER "April Stevens"
INDEX 00 02:26:57
FILE "05 - I Get Ideas.wav" WAVE
INDEX 01 00:00:00
TRACK 06 AUDIO
TITLE "Talk To Me"
PERFORMER "April Stevens"
INDEX 00 02:32:18
FILE "06 - Talk To Me.wav" WAVE
INDEX 01 00:00:00
TRACK 07 AUDIO
TITLE "I'm In Love Again"
PERFORMER "April Stevens"
INDEX 00 02:17:56
FILE "07 - I'm In Love Again.wav" WAVE
INDEX 01 00:00:00
TRACK 08 AUDIO
TITLE "That's My Name"
PERFORMER "April Stevens"
INDEX 00 02:18:66
FILE "08 - That's My Name.wav" WAVE
INDEX 01 00:00:00
TRACK 09 AUDIO
TITLE "I'm Making Believe"
PERFORMER "April Stevens"
INDEX 00 02:01:34
FILE "09 - I'm Making Believe.wav" WAVE
INDEX 01 00:00:00
TRACK 10 AUDIO
TITLE "I'll Wait For Your Love"
PERFORMER "April Stevens"
INDEX 00 02:15:27
FILE "10 - I'll Wait For Your Love.wav" WAVE
INDEX 01 00:00:00
TRACK 11 AUDIO
TITLE "It Can't Be Wrong"
PERFORMER "April Stevens"
INDEX 00 02:38:30
FILE "11 - It Can't Be Wrong.wav" WAVE
INDEX 01 00:00:00
TRACK 12 AUDIO
TITLE "When My Baby Smiles At Me"
PERFORMER "April Stevens"
INDEX 00 02:08:74
FILE "12 - When My Baby Smiles At Me.wav" WAVE
INDEX 01 00:00:00
Скачивание доступно после регистрации!!
Приватный:
Нет (DHT включён)
Размер:
210.80 Мб (221,039,501 байт) » файлов: 30
Участники:
0 раздают, 0 качают (0 участников всего)
Внешние участники:
5 раздают, 1 качают (6 участников всего) [ Обновить ]
07:38
11
Нет комментариев. Ваш будет первым!