Поиск

(Vocal Jazz) Ella Fitzgerald With The Tommy Flanagan Trio — Montreux '77 — 1989, FLAC (tracks+.cue), lossless

(Vocal Jazz) Ella Fitzgerald With The Tommy Flanagan Trio — Montreux '77 — 1989, FLAC (tracks+.cue), lossless
Треклист:
Ella Fitzgerald With The Tommy Flanagan Trio — Montreux '77
Жанр: Vocal Jazz
Год выпуска диска: 1989
Производитель диска: Pablo
Аудио кодек: FLAC
Тип рипа: tracks+.cue
Битрейт аудио: lossless
Продолжительность: 42:11
Трэклист:
01. Too Close For Comfort (3:42)
02. I Ain't Got Nothin' But The Blues (4:29)
03. My Man (4:02)
04. Come Rain Or Come Shine (2:48)
05. Day By Day (2:07)
06. Ordinary Fool (3:52)
07. One Note Samba (6:43)
08. I Let A Song Go Out Of My Heart (5:03)
09. Billie's Bounce (5:25)
10. You Are The Sunshine Of My Life (4:00)
Источник:
 
Отчет ЕАС
Exact Audio Copy V0.99 prebeta 4 from 23. January 2008
EAC extraction logfile from 24. December 2008, 14:36
Ella Fitzgerald with The Tommy Flanagan Trio / Montreux '77
Used drive : LITE-ON CD-RW SOHR-5238S Adapter: 1 ID: 1
Read mode : Secure
Utilize accurate stream : Yes
Defeat audio cache : Yes
Make use of C2 pointers : No
Read offset correction : 6
Overread into Lead-In and Lead-Out : No
Fill up missing offset samples with silence : Yes
Delete leading and trailing silent blocks : No
Null samples used in CRC calculations : Yes
Used interface : Installed external ASPI interface
Gap handling : Appended to previous track
Used output format : Internal WAV Routines
Sample format : 44.100 Hz; 16 Bit; Stereo
TOC of the extracted CD
Track | Start | Length | Start sector | End sector
---------------------------------------------------------
1 | 0:00.00 | 3:41.60 | 0 | 16634
2 | 3:41.60 | 4:29.27 | 16635 | 36836
3 | 8:11.12 | 4:02.00 | 36837 | 54986
4 | 12:13.12 | 2:47.48 | 54987 | 67559
5 | 15:00.60 | 2:07.27 | 67560 | 77111
6 | 17:08.12 | 3:51.63 | 77112 | 94499
7 | 21:00.00 | 6:43.12 | 94500 | 124736
8 | 27:43.12 | 5:02.68 | 124737 | 147454
9 | 32:46.05 | 5:25.07 | 147455 | 171836
10 | 38:11.12 | 3:59.63 | 171837 | 189824
Track 1
Filename K:\grabbing\Ella Montreux\01 - Too Close For Comfort.wav
Pre-gap length 0:00:02.00
Peak level 71.6 %
Track quality 99.9 %
Test CRC 44621CD8
Copy CRC 44621CD8
Copy OK
Track 2
Filename K:\grabbing\Ella Montreux\02 - I Ain't Got Nothin' But The Blues.wav
Pre-gap length 0:00:00.10
Peak level 71.9 %
Track quality 100.0 %
Test CRC 684B9D94
Copy CRC 684B9D94
Copy OK
Track 3
Filename K:\grabbing\Ella Montreux\03 - My Man.wav
Pre-gap length 0:00:00.12
Peak level 56.4 %
Track quality 100.0 %
Test CRC 603DD4E8
Copy CRC 603DD4E8
Copy OK
Track 4
Filename K:\grabbing\Ella Montreux\04 - Come Rain Or Come Shine.wav
Pre-gap length 0:00:00.12
Peak level 66.3 %
Track quality 100.0 %
Test CRC 1E2A435B
Copy CRC 1E2A435B
Copy OK
Track 5
Filename K:\grabbing\Ella Montreux\05 - Day By Day.wav
Pre-gap length 0:00:00.10
Peak level 72.8 %
Track quality 100.0 %
Test CRC 638798EF
Copy CRC 638798EF
Copy OK
Track 6
Filename K:\grabbing\Ella Montreux\06 - Ordinary Fool.wav
Pre-gap length 0:00:00.25
Peak level 55.5 %
Track quality 100.0 %
Test CRC A40C9B9A
Copy CRC A40C9B9A
Copy OK
Track 7
Filename K:\grabbing\Ella Montreux\07 - One Note Samba.wav
Pre-gap length 0:00:11.23
Peak level 81.0 %
Track quality 100.0 %
Test CRC B80F943D
Copy CRC B80F943D
Copy OK
Track 8
Filename K:\grabbing\Ella Montreux\08 - I Let A Song Go Out Of My Heart.wav
Pre-gap length 0:00:00.12
Peak level 73.7 %
Track quality 100.0 %
Test CRC AFD9C986
Copy CRC AFD9C986
Copy OK
Track 9
Filename K:\grabbing\Ella Montreux\09 - Billie's Bounce.wav
Pre-gap length 0:00:13.05
Peak level 73.3 %
Track quality 99.9 %
Test CRC 2813CAA1
Copy CRC 2813CAA1
Copy OK
Track 10
Filename K:\grabbing\Ella Montreux\10 - You Are The Sunshine Of My Life.wav
Pre-gap length 0:00:00.12
Peak level 75.7 %
Track quality 100.0 %
Test CRC 1AA7E33B
Copy CRC 1AA7E33B
Copy OK
No errors occurred
End of status report
Мои раздачи на трекере
По всем вопросам пишите личное сообщение пользователю M0p94ok.
08:22
425
Нет комментариев. Ваш будет первым!