Поиск

(Big Band/ Vocal jazz) Diane Schuur & Maynard Ferguson - Swingin' For Schuur - 2001, FLAC (image+.cue), lossless

(Big Band/ Vocal jazz) Diane Schuur & Maynard Ferguson - Swingin' For Schuur - 2001, FLAC (image+.cue), lossless
Треклист:
Diane Schuur & Maynard Ferguson - Swingin' For Schuur
Жанр: Big Band/ Vocal jazz
Год выпуска диска: 2001
Производитель диска: пиратский
Аудио кодек: FLAC
Тип рипа: image+.cue
Битрейт аудио: lossless
Продолжительность: 0:56:52
Трэклист:
1. Just One Of Those Things (04:09)
2. Besame Mucho (05:20)
3. Deep Purple (06:28)
4. Autumn Leaves (03:33)
5. My Romance (03:52)
6. Love Letters (04:39)
7. East Of The Sun And West Of The Moon (03:35)
8. Midnight Sun (05:58)
9. I Fall In Love Too Easily (04:31)
10. Lush Life (05:57)
11. Just Friends (04:59)
12. Let's Fall In Love (03:45)
 
отчёт ЕАС
Exact Audio Copy V0.99 prebeta 4 from 23. January 2008
Отчёт EAC об извлечении, выполненном 26. апреля 2009, 16:35
Diane Schuur & Maynard Ferguson / Swingin' For Schuur
Дисковод: ASUS DRW-1608P3S Adapter: 1 ID: 0
Режим чтения : Достоверность
Использование точного потока : Да
Отключение кэша аудио : Да
Использование указателей C2 : Нет
Коррекция смещения при чтении : 48
Способность читать области Lead-in и Lead-out : Нет
Заполнение пропущенных сэмплов тишиной : Да
Удаление блоков с тишиной в начале и конце : Нет
При вычислениях CRC использовались нулевые сэмплы : Да
Интерфейс : Установленный внешний ASPI-интерфейс
Выходной формат : Пользовательский кодировщик
Выбранный битрейт : 768 kBit/s
Качество : Высокий
Добавление ID3-тэга : Нет
Утилита сжатия : C:\Program Files\Exact Audio Copy\FLAC\FLAC.EXE
Дополнительные параметры : -6 -V -T "ARTIST=%a" -T "TITLE=%t" -T "ALBUM=%g" -T "DATE=%y" -T "TRACKNUMBER=%n" -T "GENRE=%m" -T "COMMENT=%e" %s -o %d
TOC извлечённого CD
Трек | Старт | Длительность | Начальный сектор | Конечный сектор
---------------------------------------------------------------------
1 | 0:00.00 | 4:09.65 | 0 | 18739
2 | 4:09.65 | 5:20.25 | 18740 | 42764
3 | 9:30.15 | 6:28.20 | 42765 | 71884
4 | 15:58.35 | 3:33.30 | 71885 | 87889
5 | 19:31.65 | 3:52.55 | 87890 | 105344
6 | 23:24.45 | 4:39.22 | 105345 | 126291
7 | 28:03.67 | 3:35.33 | 126292 | 142449
8 | 31:39.25 | 5:58.67 | 142450 | 169366
9 | 37:38.17 | 4:31.23 | 169367 | 189714
10 | 42:09.40 | 5:58.10 | 189715 | 216574
11 | 48:07.50 | 4:59.20 | 216575 | 239019
12 | 53:06.70 | 3:45.35 | 239020 | 255929
Характеристики диапазона извлечения и сообщения об ошибках
Выбранный диапазон
Имя файла C:\22\Diane Schuur & Maynard Ferguson - Swinging for Schuur - 2001\Diane Schuur & Maynard Ferguson - Swingin' For Schuur.wav
Пиковый уровень 100.0 %
Качество диапазона 100.0 %
CRC копии 8CC9F948
Копирование... OK
Ошибок не произошло
AccurateRip: сводка
Трек 1 точность не определена (достоверность 4) [0DBC2F71], AccurateRip вернул [DF734F07]
Трек 2 точность не определена (достоверность 4) [C7D264E7], AccurateRip вернул [75318CBB]
Трек 3 точность не определена (достоверность 4) [D0991491], AccurateRip вернул [F90AAF44]
Трек 4 точность не определена (достоверность 4) [299DC292], AccurateRip вернул [E39C20C2]
Трек 5 точность не определена (достоверность 3) [CE09B6AD], AccurateRip вернул [8C5E35F3]
Трек 6 точность не определена (достоверность 4) [5F523CA7], AccurateRip вернул [CC829761]
Трек 7 точность не определена (достоверность 4) [8394BE72], AccurateRip вернул [A838B5A8]
Трек 8 точность не определена (достоверность 4) [9C00E7C7], AccurateRip вернул [063B9DB7]
Трек 9 точность не определена (достоверность 4) [592F17EB], AccurateRip вернул [5459C60F]
Трек 10 точность не определена (достоверность 4) [221EE611], AccurateRip вернул [92A2807F]
Трек 11 точность не определена (достоверность 4) [49FB50FE], AccurateRip вернул [5CC386C5]
Трек 12 точность не определена (достоверность 3) [321EF849], AccurateRip вернул [F3C82605]
Ни один трек не прошёл проверки на точность
В вашей базе может быть иной вариант штамповки диска
Конец отчёта
 
Аудиочекер
AUDIOCHECKER v2.0 beta (build 457) - by Dester - opdester@freemail.hu
~~~~~~~~~~~~~~~~~~~~~~~~~~~~~~~~~~
Начато: воскресенье, 26. 04. 2009. - 16:41.17
Найдено файлов: 1
1 -===- C:\22\Diane Schuur & Maynard Ferguson - Swinging for Schuur - 2001\Diane Schuur & Maynard Ferguson - Swingin' For Schuur.flac
Извлечение успешно выполнено
Заключение: этот трек - CDDA с вероятностью 100%
Временный файл удалён.
Завершено: воскресенье, 26. 04. 2009. - 16:55.12 (Время операции: 0:13.55)
буклеты и диск сфотографированы
По всем вопросам пишите личное сообщение пользователю M0p94ok.
07:21
296
Нет комментариев. Ваш будет первым!