Поиск

(Vocal Jazz, Easy Listening) Doris Day - The Love Album - 2006, FLAC (image+.cue), lossless

(Vocal Jazz, Easy Listening) Doris Day - The Love Album - 2006, FLAC (image+.cue), lossless
Треклист:
Doris Day - The Love Album
Жанр: Vocal Jazz, Easy Listening
Год выпуска диска: 2006
Производитель диска: Made in the EU / 013431310426
Лейбл: Feinery Records, CONCORD Records
Аудио кодек: FLAC
Тип рипа: image+.cue
Битрейт аудио: lossless
Продолжительность: 43:24.62
Трэклист:
1. For All We Know
2. Snuggled On Your Shoulder
3. Are You Lonesome Tonight?
4. Wonderful One
5. Street Of Dreams
6. Oh, How I Miss You Tonight
7. Life Is Just A Bowl Of Cherries
8. All Alone
9. A Faded Summer Love
10. Sleepy Lagoon
11. If I Had My Life To Live Over / Let Me Call You Sweetheart
12. Both Sides Now
13. It's Magic
14. Sentimental Journey
 
Содержание
 
Log EAC
Exact Audio Copy V0.99 prebeta 4 from 23. January 2008
Отчёт EAC об извлечении, выполненном 26. апреля 2009, 14:41
Doris Day / The Love Album (2006)
Дисковод: Optiarc DVD RW AD-7561S Adapter: 2 ID: 0
Режим чтения : Достоверность
Использование точного потока : Да
Отключение кэша аудио : Да
Использование указателей C2 : Нет
Коррекция смещения при чтении : 6
Способность читать области Lead-in и Lead-out : Нет
Заполнение пропущенных сэмплов тишиной : Да
Удаление блоков с тишиной в начале и конце : Нет
При вычислениях CRC использовались нулевые сэмплы : Да
Интерфейс : Встроенный Win32-интерфейс для Win NT/2000
Выходной формат : Пользовательский кодировщик
Выбранный битрейт : 768 kBit/s
Качество : Высокий
Добавление ID3-тэга : Нет
Утилита сжатия : C:\Program Files\Exact Audio Copy\FLAC\FLAC.EXE
Дополнительные параметры : -6 -V -T "ARTIST=%a" -T "TITLE=%t" -T "ALBUM=%g" -T "DATE=%y" -T "TRACKNUMBER=%n" -T "GENRE=%m" -T "COMMENT=%e" %s -o %d
TOC извлечённого CD
Трек | Старт | Длительность | Начальный сектор | Конечный сектор
---------------------------------------------------------------------
1 | 0:00.00 | 3:35.33 | 0 | 16157
2 | 3:35.33 | 3:25.74 | 16158 | 31606
3 | 7:01.32 | 2:05.09 | 31607 | 40990
4 | 9:06.41 | 2:39.61 | 40991 | 52976
5 | 11:46.27 | 2:57.20 | 52977 | 66271
6 | 14:43.47 | 2:56.59 | 66272 | 79530
7 | 17:40.31 | 2:57.10 | 79531 | 92815
8 | 20:37.41 | 3:42.22 | 92816 | 109487
9 | 24:19.63 | 3:33.50 | 109488 | 125512
10 | 27:53.38 | 3:24.10 | 125513 | 140822
11 | 31:17.48 | 4:00.34 | 140823 | 158856
12 | 35:18.07 | 3:00.02 | 158857 | 172358
13 | 38:18.09 | 2:35.01 | 172359 | 183984
14 | 40:53.10 | 2:31.53 | 183985 | 195362
Характеристики диапазона извлечения и сообщения об ошибках
Выбранный диапазон
Имя файла C:\ЧЕРНОВИК\ПРОЕКТЫ\Doris Day. The Love Songs\Doris Day - The Love Album (2006).wav
Пиковый уровень 91.5 %
Качество диапазона 100.0 %
CRC теста DFFB939E
CRC копии DFFB939E
Копирование... OK
Ошибок не произошло
Конец отчёта
 
Tau Analyzer
Доп. информация:
Переиздание комапнией "Concord" хитового альбома Дорис Дэй "The Love Songs", записанного в 1967 году, переиздание дополнено записями 1971 года US TV special.
Download available for power users only.
07:21
272
Нет комментариев. Ваш будет первым!