Поиск

(Classic Jazz) Rosemary Clooney - 1993 - Do You Miss New York ? - 1993, APE (image+.cue), lossless

(Classic Jazz) Rosemary Clooney - 1993 - Do You Miss New York ? - 1993, APE (image+.cue), lossless
Треклист:
Rosemary Clooney - 1993 - Do You Miss New York ?
Жанр: Classic Jazz
Год выпуска диска: 1993
Производитель диска: USA
Аудио кодек: APE
Тип рипа: image+.cue
Битрейт аудио: lossless
Продолжительность: 51:44
Трэклист:
01. Rosemary Clooney / Do You Miss New York? [0:05:14.30]
02. Rosemary Clooney / Gee Baby, Ain't I Good to You? [0:03:34.50]
03. Rosemary Clooney / As Long as I live [0:03:24.43]
04. Rosemary Clooney / May I Come In? [0:06:38.72]
05. Rosemary Clooney / Route 66 [0:07:50.30]
06. Rosemary Clooney / A Beautiful Friendship [0:02:10.08]
07. Rosemary Clooney & John Pizzarelli / It's Only a Paper Moon [0:03:27.00]
08. Rosemary Clooney / I ain't got nothin' but the blues [0:05:57.02]
09. Rosemary Clooney / I Wish You Love [0:03:05.53]
10. Rosemary Clooney / I Get Along Without You Very Well [0:04:12.05]
11. Rosemary Clooney / We'll Be Together Again [0:06:08.65]
Доп. информация:
 
EAC log
Exact Audio Copy V0.99 prebeta 4 from 23. January 2008
EAC extraction logfile from 23. April 2009, 19:28
Rosemary Clooney / Do You Miss New York?
Used drive : PLEXTOR DVDR PX-750A Adapter: 2 ID: 1
Read mode : Secure
Utilize accurate stream : Yes
Defeat audio cache : Yes
Make use of C2 pointers : No
Read offset correction : 102
Overread into Lead-In and Lead-Out : No
Fill up missing offset samples with silence : Yes
Delete leading and trailing silent blocks : No
Null samples used in CRC calculations : Yes
Used interface : Native Win32 interface for Win NT & 2000
Used output format : Monkey's Audio Lossless Encoder v3.99 DLL
Sample format : Normal Lossless Compression
TOC of the extracted CD
Track | Start | Length | Start sector | End sector
---------------------------------------------------------
1 | 0:00.00 | 5:14.30 | 0 | 23579
2 | 5:14.30 | 3:34.50 | 23580 | 39679
3 | 8:49.05 | 3:24.43 | 39680 | 55022
4 | 12:13.48 | 6:38.72 | 55023 | 84944
5 | 18:52.45 | 7:50.30 | 84945 | 120224
6 | 26:43.00 | 2:10.08 | 120225 | 129982
7 | 28:53.08 | 3:27.00 | 129983 | 145507
8 | 32:20.08 | 5:57.02 | 145508 | 172284
9 | 38:17.10 | 3:05.53 | 172285 | 186212
10 | 41:22.63 | 4:12.05 | 186213 | 205117
11 | 45:34.68 | 6:08.65 | 205118 | 232782
Range status and errors
Selected range
Filename C:Rosemary Clooney - Do You Miss New York.ape
Peak level 99.9 %
Range quality 99.9 %
Copy CRC 99ECD18B
Copy OK
No errors occurred
End of status report
По всем вопросам пишите личное сообщение пользователю M0p94ok.
07:20
310
Нет комментариев. Ваш будет первым!