Поиск

(Ballads / Standards / Vocal Jazz / Swing / Traditional Pop) Ella Fitzgerald - Ken Burns Jazz - 2000, FLAC (image+.cue), lossless

Треклист:
Ella Fitzgerald - Ken Burns Jazz

Жанр: Ballads / Standards / Vocal Jazz / Swing / Traditional Pop
Год выпуска диска: 2000
Производитель диска: USA Verve
Аудио кодек: FLAC
Тип рипа: image+.cue
Битрейт аудио: lossless
Продолжительность: 1:10:30
Трэклист:
01 A-Tisket, A-Tasket 2:40
02 Vote for Mr. Rhythm 2:27
03 Betcha Nickel 2:55
04 Flying Home 2:30
05 Nice Work If You Can Get It 2:38
06 Smooth Sailing 3:07
07 Lullaby of Birdland 2:52
08 Night and Day 3:06
09 Let's Call the Whole Thing Off 4:12
10 Sophisticated Lady 5:22
11 Oh, Lady Be Good [live] 4:02
12 Blue Skies 3:45
13 Mack the Knife 4:43
14 How High the Moon 7:04
15 Blues in the Night 7:12
16 You'll Have to Swing It (Mr. Paganini) 4:05
17 A Night in Tunisia 4:09
18 Shiny Stockings 3:32
 
EAC.log
Exact Audio Copy V0.99 prebeta 4 from 23. January 2008
EAC extraction logfile from 23. April 2009, 19:55
Ella Fitzgerald / Ken Burns Jazz
Used drive : PIONEER DVD-RW DVR-110D Adapter: 1 ID: 0
Read mode : Secure
Utilize accurate stream : Yes
Defeat audio cache : Yes
Make use of C2 pointers : No
Read offset correction : 48
Overread into Lead-In and Lead-Out : No
Fill up missing offset samples with silence : Yes
Delete leading and trailing silent blocks : No
Null samples used in CRC calculations : Yes
Used interface : Native Win32 interface for Win NT & 2000
Used output format : User Defined Encoder
Selected bitrate : 768 kBit/s
Quality : High
Add ID3 tag : No
Command line compressor : C:\Program Files\Exact Audio Copy\Flac\flac.exe
Additional command line options : -8 -V %s -o %d
TOC of the extracted CD
Track | Start | Length | Start sector | End sector
---------------------------------------------------------
1 | 0:00.00 | 2:40.05 | 0 | 12004
2 | 2:40.05 | 2:27.57 | 12005 | 23086
3 | 5:07.62 | 2:55.63 | 23087 | 36274
4 | 8:03.50 | 2:30.05 | 36275 | 47529
5 | 10:33.55 | 2:38.05 | 47530 | 59384
6 | 13:11.60 | 3:07.30 | 59385 | 73439
7 | 16:19.15 | 2:52.55 | 73440 | 86394
8 | 19:11.70 | 3:06.30 | 86395 | 100374
9 | 22:18.25 | 4:12.70 | 100375 | 119344
10 | 26:31.20 | 5:22.25 | 119345 | 143519
11 | 31:53.45 | 4:02.42 | 143520 | 161711
12 | 35:56.12 | 3:45.20 | 161712 | 178606
13 | 39:41.32 | 4:43.43 | 178607 | 199874
14 | 44:25.00 | 7:04.70 | 199875 | 231744
15 | 51:29.70 | 7:12.72 | 231745 | 264216
16 | 58:42.67 | 4:05.30 | 264217 | 282621
17 | 62:48.22 | 4:09.55 | 282622 | 301351
18 | 66:58.02 | 3:32.08 | 301352 | 317259
Range status and errors
Selected range
Filename E:\rutracker.org\Ella Fitzgerald - Ken Burns Jazz\Ella Fitzgerald - Ken Burns Jazz.wav
Peak level 99.6 %
Range quality 100.0 %
Test CRC 58AAD737
Copy CRC 58AAD737
Copy OK
No errors occurred
AccurateRip summary
Track 1 accurately ripped (confidence 15) [FB64ACD4]
Track 2 accurately ripped (confidence 14) [CFE0F9D1]
Track 3 accurately ripped (confidence 15) [0E62F8D8]
Track 4 accurately ripped (confidence 15) [6AA50F73]
Track 5 accurately ripped (confidence 15) [37322058]
Track 6 accurately ripped (confidence 15) [5F3DCECD]
Track 7 accurately ripped (confidence 15) [857632FB]
Track 8 accurately ripped (confidence 15) [F37D6FA3]
Track 9 accurately ripped (confidence 14) [DEBB2948]
Track 10 accurately ripped (confidence 15) [DA2A38A4]
Track 11 accurately ripped (confidence 15) [D81D870E]
Track 12 accurately ripped (confidence 15) [D852749B]
Track 13 accurately ripped (confidence 15) [896894D5]
Track 14 accurately ripped (confidence 15) [7DB379A3]
Track 15 accurately ripped (confidence 15) [7CA741F2]
Track 16 accurately ripped (confidence 15) [DB1DED16]
Track 17 accurately ripped (confidence 15) [6D30E48D]
Track 18 accurately ripped (confidence 15) [80414618]
All tracks accurately ripped
End of status report
По всем вопросам пишите личное сообщение пользователю M0p94ok.
07:23
351
Нет комментариев. Ваш будет первым!