Поиск

(Vocal Jazz, Cuban, Afro-Cuban, Latin) Mayra Caridad Valdes - La Diosa del Mar {Jazzheads Records JH1141, USA} - 2002, APE (image+.cue) lossless

(Vocal Jazz, Cuban, Afro-Cuban, Latin) Mayra Caridad Valdes - La Diosa del Mar {Jazzheads Records JH1141, USA} - 2002, APE (image+.cue) lossless
Треклист:
Mayra Caridad Valdés - La Diosa del Mar
Жанр: Vocal Jazz, Cuban, Afro-Cuban, Latin
Страна-производитель диска: USA
Год издания диска: 2002
Издатель (лейбл): Mateca Productions, Inc. / Jazzheads Records
Номер по каталогу: JH1141
Аудио кодек: APE (*.ape)
Тип рипа: image+.cue
Битрейт аудио: lossless
Продолжительность: 00:48:52
Источник (релизер): barin99
Наличие сканов в содержимом раздачи: да
Треклист:
01. Drume Negrita 4:43
02. Mambo Influenciado 4:08
03. Danza Ñáñiga 4:46
04. Bésame Mucho 5:33
05. Yemayá 7:17
06. Para Que Vuelvas 3:44
07. Billie's Bounce 4:57
08. Danzonete 5:04
09. Como Fue 3:44
10. Rezo Afrocubano 4:52
Personnel:
Mayra Caridad Valdés — Vocals
Irving Michel Acao Sierra — Sax (Alto)
Luis Miguel Guerra Crespo — Keyboards
Tony Pérez González — Acoustic Piano
Narciso Jorge Reyes — Bass
Enrique Román Plá García — Drums
Yaroldi Abreu Robles — Percussion
 
Лог создания рипа (EAC Log)
Exact Audio Copy V0.99 prebeta 5 from 4. May 2009
EAC extraction logfile from 19. June 2010, 19:54
Maya Caridad Valdes / La Diosa del Mar
Used drive : TSSTcorpDVD+-RW TS-U633A Adapter: 0 ID: 1
Read mode : Secure
Utilize accurate stream : Yes
Defeat audio cache : Yes
Make use of C2 pointers : No
Read offset correction : 6
Overread into Lead-In and Lead-Out : No
Fill up missing offset samples with silence : Yes
Delete leading and trailing silent blocks : No
Null samples used in CRC calculations : Yes
Used interface : Native Win32 interface for Win NT & 2000
Used output format : Internal WAV Routines
Sample format : 44.100 Hz; 16 Bit; Stereo
TOC of the extracted CD
Track | Start | Length | Start sector | End sector
---------------------------------------------------------
1 | 0:00.00 | 4:43.17 | 0 | 21241
2 | 4:43.17 | 4:08.04 | 21242 | 39845
3 | 8:51.21 | 4:46.09 | 39846 | 61304
4 | 13:37.30 | 5:33.14 | 61305 | 86293
5 | 19:10.44 | 7:17.71 | 86294 | 119139
6 | 26:28.40 | 3:44.65 | 119140 | 136004
7 | 30:13.30 | 4:57.05 | 136005 | 158284
8 | 35:10.35 | 5:04.67 | 158285 | 181151
9 | 40:15.27 | 3:44.03 | 181152 | 197954
10 | 43:59.30 | 4:53.00 | 197955 | 219929
Range status and errors
Selected range
Filename C:\_Arc\EAC_Out\Maya Caridad Valdes - La Diosa del Mar\Maya Caridad Valdes - La Diosa del Mar.wav
Peak level 100.0 %
Range quality 100.0 %
Copy CRC 6A9A93C0
Copy OK
No errors occurred
AccurateRip summary
Track 1 not present in database
Track 2 not present in database
Track 3 not present in database
Track 4 not present in database
Track 5 not present in database
Track 6 not present in database
Track 7 not present in database
Track 8 not present in database
Track 9 not present in database
Track 10 not present in database
None of the tracks are present in the AccurateRip database
End of status report
 
Содержание индексной карты (.CUE)
REM GENRE Latin
REM DATE 2002
REM DISCID 760B740A
REM COMMENT "ExactAudioCopy v0.99pb5"
PERFORMER "Mayra Caridad Valdes"
TITLE "La Diosa del Mar"
FILE "Mayra Caridad Valdes - La Diosa del Mar.ape" WAVE
TRACK 01 AUDIO
TITLE "Drume Negrita"
PERFORMER "Mayra Caridad Valdes"
INDEX 01 00:00:00
TRACK 02 AUDIO
TITLE "Mambo Ingluenciado"
PERFORMER "Mayra Caridad Valdes"
INDEX 01 04:43:17
TRACK 03 AUDIO
TITLE "Danza Naniga"
PERFORMER "Mayra Caridad Valdes"
INDEX 01 08:51:21
TRACK 04 AUDIO
TITLE "Besame Mucho"
PERFORMER "Mayra Caridad Valdes"
INDEX 01 13:37:30
TRACK 05 AUDIO
TITLE "Yemaya"
PERFORMER "Mayra Caridad Valdes"
INDEX 01 19:10:44
TRACK 06 AUDIO
TITLE "Para Que Vuelvas"
PERFORMER "Mayra Caridad Valdes"
INDEX 01 26:28:40
TRACK 07 AUDIO
TITLE "Billie's Bounce"
PERFORMER "Mayra Caridad Valdes"
INDEX 01 30:13:30
TRACK 08 AUDIO
TITLE "Danzonete"
PERFORMER "Mayra Caridad Valdes"
INDEX 01 35:10:35
TRACK 09 AUDIO
TITLE "Como Fue"
PERFORMER "Mayra Caridad Valdes"
INDEX 01 40:15:27
TRACK 10 AUDIO
TITLE "Rezo Afrocubano"
PERFORMER "Mayra Caridad Valdes"
INDEX 01 43:59:30
 
AMG
"Cuban jazz vocalist Mayra Caridad Valdés devoted most of her musical career to live performance, singing as part of Irakere and also with her famous brother Chucho, before debuting as a recording artist in 2002. Born on April 20, 1956, to Bebo Valdés, a legendary Cuban jazz pianist, Mayra studied at the National Art School in Cuba and graduated in 1975 with a degree in choral music. She initially worked as a musicologist alongside Odilio Urfe but instead turned toward performing after Harry Belafonte invited her to perform with him in 1981 at his concerts in Cuba. Following this golden opportunity, Valdés never looked back. She toured Japan and Europe as a solo vocalist and as a member of numerous groups including Irakere, a group she permanently joined in 1994, and also her brother Chucho's quartet. In 2002 Jazzheads released her debut solo album, La Diosa del Mar, a ten-song collection of Afro-Cuban jazz standards, traditional folkloric songs, and boleros.
It must be in the genes. Mayra Caridad Valdés, the daughter of mambo-era pianist, arranger, and musical director Bebo Valdés, younger sister of Latin jazz Grammy winner Chucho Valdés, and lead singer of the Cuban group Irakere, now steps closer to the plate with her own album. A grouping of Afro-Cuban jazz, folklore, time-tested boleros, and standards, the play list of La Diosa del Mar is artfully designed to highlight Valdés' striking alto voice. There's an opportunity to sing with an infectious dance beat to her voice on 'Danzonete.' Complete with male chorus, this tune is guaranteed to pull those to the dance who love to move to an Afro-Cuban beat. Many of the songs on the play list are pitched toward the singer's ability to get the ultimate out of songs with a romantic theme. The well-known standard 'Bésame Mucho' is the vehicle for Valdés to use her smoky eroticism before seguing into wordless vocalizing that only adds to the torch feel she gives this song. 'Yemayá' and 'Para Que Vuelvas' also fall into this category. The former is especially engaging, with Valdés' lilting vocalizing riding over the mellow sax of Irving Acao. But Valdés owns a flexible voice, not limited one iota to slower-paced material. On her improvisational wordless vocalizing of 'Billie's Bounce,' she articulates rapid-fire repeated notes with incredible ease and aplomb. This piece, especially, calls for favorable comparison to the matchless scatting skills of Ella Fitzgerald. Despite the Latin theme, there's a hint of gospel fervor in 'Danza Ñáñiga.' For those who lean toward Latin jazz, Valdés is already a known commodity because of her work with Irakere and her brother. For everyone else, she will be a pleasant discovery."
21:55
355
Нет комментариев. Ваш будет первым!