Поиск

(Ethno Jazz, Avant-Garde, Modern Jazz) Denis Colin & Les Arpenteurs - Etude De Terrain - 2000, FLAC (image+.cue), lossless

(Ethno Jazz, Avant-Garde, Modern Jazz) Denis Colin & Les Arpenteurs - Etude De Terrain - 2000, FLAC (image+.cue), lossless
Треклист:
Denis Colin & Les Arpenteurs / Etude De Terrain
Жанр: Ethno Jazz, Avant-Garde, Modern Jazz
Страна-производитель диска: France
Год издания диска: 2000
Издатель (лейбл): Nato
Номер по каталогу: HS10050
Аудиокодек: FLAC (*.flac)
Тип рипа: image+.cue
Битрейт аудио: lossless
Продолжительность: 47:20
Источник (релизер): Рип с собственного диска
Наличие сканов в содержимом раздачи: нет
Треклист:
1 Détails Intérieurs
2 A L'Aide De L'Ombre
3 Par Cheminement
4 L'Equerre Sur Le Jalon
5 Au Moyen De La Chaîne Seule
6 Procédés Elémentaires
7 Mesures Des Distances Inaccessibles
8 Par Rayonnement
 
Лог создания рипа
Exact Audio Copy V0.99 prebeta 5 from 4. May 2009
Отчёт EAC об извлечении, выполненном 9. июля 2011, 9:35
Denis Colin et les Arpenteurs / Etude de terrain
Дисковод: Optiarc DVD RW AD-7530B Adapter: 1 ID: 0
Режим чтения : Достоверность
Использование точного потока : Да
Отключение кэша аудио : Да
Использование указателей C2 : Нет
Коррекция смещения при чтении : 6
Способность читать области Lead-in и Lead-out : Нет
Заполнение пропущенных сэмплов тишиной : Да
Удаление блоков с тишиной в начале и конце : Нет
При вычислениях CRC использовались нулевые сэмплы : Да
Интерфейс : Встроенный Win32-интерфейс для Win NT/2000
Выходной формат : Пользовательский кодировщик
Выбранный битрейт : 896 kBit/s
Качество : Высокий
Добавление ID3-тэга : Нет
Утилита сжатия : C:\Program Files\Exact Audio Copy\Flac\flac.exe
Дополнительные параметры : -8 -V %s
TOC извлечённого CD
Трек | Старт | Длительность | Начальный сектор | Конечный сектор
---------------------------------------------------------------------
1 | 0:00.00 | 3:17.12 | 0 | 14786
2 | 3:17.12 | 6:07.65 | 14787 | 42376
3 | 9:25.02 | 11:04.52 | 42377 | 92228
4 | 20:29.54 | 3:19.00 | 92229 | 107153
5 | 23:48.54 | 7:10.28 | 107154 | 139431
6 | 30:59.07 | 3:17.25 | 139432 | 154231
7 | 34:16.32 | 9:58.58 | 154232 | 199139
8 | 44:15.15 | 3:05.32 | 199140 | 213046
Характеристики диапазона извлечения и сообщения об ошибках
Выбранный диапазон
Имя файла F:\Новая папка (12)\Denis Colin et les Arpenteurs - Etude de terrain (2000).wav
Пиковый уровень 98.0 %
Качество диапазона 100.0 %
CRC копии 6963634E
Копирование... OK
Ошибок не произошло
AccurateRip: сводка
Трек 1 точность не определена (достоверность 1) [8D5D679F], AccurateRip вернул [E3BAA38B]
Трек 2 точность не определена (достоверность 1) [A9F43B1E], AccurateRip вернул [2521EE8E]
Трек 3 точность не определена (достоверность 1) [8C18172B], AccurateRip вернул [7CE05DBB]
Трек 4 точность не определена (достоверность 1) [AE505D54], AccurateRip вернул [A97A9DF6]
Трек 5 точность не определена (достоверность 1) [CA83AF0B], AccurateRip вернул [38D79A95]
Трек 6 точность не определена (достоверность 1) [E676B7BA], AccurateRip вернул [AAB4B10E]
Трек 7 точность не определена (достоверность 1) [60C50EEE], AccurateRip вернул [4ACF12F8]
Трек 8 точность не определена (достоверность 1) [C4966AC1], AccurateRip вернул [35BBC9B1]
Ни один трек не прошёл проверки на точность
В вашей базе может быть иной вариант штамповки диска
Конец отчёта
 
Содержание индексной карты (.CUE)
REM GENRE Avantgarde
REM DATE 2000
REM DISCID 690B1808
REM COMMENT ExactAudioCopy v0.99pb5
PERFORMER "Denis Colin et les Arpenteurs"
TITLE "Etude de terrain"
FILE "Denis Colin et les Arpenteurs - Etude de terrain (2000).flac" WAVE
TRACK 01 AUDIO
TITLE "D?tails int?rieurs"
INDEX 01 00:00:00
TRACK 02 AUDIO
TITLE "A l'aide de l'ombre"
INDEX 01 03:17:12
TRACK 03 AUDIO
TITLE "Par cheminement"
INDEX 01 09:25:02
TRACK 04 AUDIO
TITLE "L'?querre sur le jalon"
INDEX 01 20:29:54
TRACK 05 AUDIO
TITLE "L?querre sur le jalon"
INDEX 01 23:48:54
TRACK 06 AUDIO
TITLE "Proc?d? ?l?mentaires"
INDEX 01 30:59:07
TRACK 07 AUDIO
TITLE "Mesure de distances inaccessibles"
INDEX 01 34:16:32
TRACK 08 AUDIO
TITLE "Par rayonnement"
INDEX 01 44:15:15
 
Об альбоме (сборнике)
Выдающийся альбом, получивший много наград, в Европе считается обязательным к прослушиванию как одних из самых популярных джазовых музыкантов на европейской и французской сцене. С 2000 г вышло уже два переиздания диска в 2005 и в 2011 г. Этот альбом 2000 г.
Ютубный клип: http://www.youtube.com/watch?v=aNcWEe8HzFM&feature=player_embedded#at=348
 
Состав
Didier Petit - Cello, Vocals
Denis Colin - Bass Clarinet
Pablo Cueco - Goblet Drum
Bruno Girard (tracks: 1 to 3, 6), Régis Huby (tracks: 3 to 5, 7, 8) - Violin
Camel Zekri - guitar
22:56
490
Нет комментариев. Ваш будет первым!