Поиск

(World Fusion, Afro-Cuban Jazz, Latin Jazz) Ray Barretto - Carnaval (Latino! / Pachanga with Barretto) - 1993, WavPack (image+.cue), lossless

(World Fusion, Afro-Cuban Jazz, Latin Jazz) Ray Barretto - Carnaval (Latino! / Pachanga with Barretto) - 1993, WavPack (image+.cue), lossless
Треклист:
Ray Barretto / Carnaval (Latino! / Pachanga with Barretto)
Жанр: World Fusion, Afro-Cuban Jazz, Latin Jazz
Страна-производитель диска: USA
Год издания диска: 1993
Издатель (лейбл): Fantasy
Номер по каталогу: FCD-24713-2
Страна: USA Brooklyn, NY
Аудиокодек: WavPack (*.wv)
Тип рипа: image+.cue
Битрейт аудио: lossless
Продолжительность: 01:07:00
Источник (релизер): bINkI
Наличие сканов в содержимом раздачи: да

1. Manha De Carnaval
2. Sugar's Delight
3. Exodus
4. Descarga La Moderna
5. Summertime
6. El Negro Y Ray
7. Mira Que Linda
8. Cocinando Suave
9. Pachanga Oriental
10. Barretto En La Tumbadora
11. Cumbamba
12. El Paso
13. Linda Mulata
14. Oye Heck
15. Los Cueros
16. Pachanga Suavecito
17. Ponte Dura
18. Pachanga Para Bailar
 
Лог создания рипа
Exact Audio Copy V0.99 prebeta 5 from 4. May 2009
EAC extraction logfile from 2. May 2010, 18:06
Ray Baretto / Carnaval
Used drive : HL-DT-STDVD-RAM GH22NP20 Adapter: 1 ID: 1
Read mode : Secure
Utilize accurate stream : Yes
Defeat audio cache : Yes
Make use of C2 pointers : No
Read offset correction : 102
Overread into Lead-In and Lead-Out : No
Fill up missing offset samples with silence : Yes
Delete leading and trailing silent blocks : No
Null samples used in CRC calculations : Yes
Used interface : Native Win32 interface for Win NT & 2000
Used output format : Internal WAV Routines
Sample format : 44.100 Hz; 16 Bit; Stereo
TOC of the extracted CD
Track | Start | Length | Start sector | End sector
---------------------------------------------------------
1 | 0:00.00 | 4:28.03 | 0 | 20102
2 | 4:28.03 | 3:26.37 | 20103 | 35589
3 | 7:54.40 | 5:24.30 | 35590 | 59919
4 | 13:18.70 | 4:30.30 | 59920 | 80199
5 | 17:49.25 | 2:58.40 | 80200 | 93589
6 | 20:47.65 | 5:58.73 | 93590 | 120512
7 | 26:46.63 | 2:33.57 | 120513 | 132044
8 | 29:20.45 | 6:04.33 | 132045 | 159377
9 | 35:25.03 | 2:57.45 | 159378 | 172697
10 | 38:22.48 | 3:06.30 | 172698 | 186677
11 | 41:29.03 | 2:51.67 | 186678 | 199569
12 | 44:20.70 | 2:52.03 | 199570 | 212472
13 | 47:12.73 | 3:07.32 | 212473 | 226529
14 | 50:20.30 | 2:47.28 | 226530 | 239082
15 | 53:07.58 | 3:11.67 | 239083 | 253474
16 | 56:19.50 | 3:41.40 | 253475 | 270089
17 | 60:01.15 | 4:02.00 | 270090 | 288239
18 | 64:03.15 | 2:56.60 | 288240 | 301499
Range status and errors
Selected range
Filename C:\Documents and Settings\Riccardo\Desktop\R\Ray Barretto - Carnaval\Ray Baretto - Carnaval.wav
Peak level 100.0 %
Range quality 100.0 %
Test CRC A9C9587A
Copy CRC A9C9587A
Copy OK
No errors occurred
End of status report
 
Содержание индексной карты (.CUE)
REM DISCID ED0FB412
REM COMMENT "ExactAudioCopy v0.99pb5"
PERFORMER "Ray Baretto"
TITLE "Carnaval"
FILE "Ray Baretto - Carnaval.wav" WAVE
TRACK 01 AUDIO
TITLE "Manha de Carnnaval"
PERFORMER "Ray Baretto"
INDEX 01 00:00:00
TRACK 02 AUDIO
TITLE "Sugar's Delight"
PERFORMER "Ray Baretto"
INDEX 00 04:24:43
INDEX 01 04:28:03
TRACK 03 AUDIO
TITLE "Exodus"
PERFORMER "Ray Baretto"
INDEX 00 07:50:73
INDEX 01 07:54:40
TRACK 04 AUDIO
TITLE "Descarga La Moderna"
PERFORMER "Ray Baretto"
INDEX 00 13:14:55
INDEX 01 13:18:70
TRACK 05 AUDIO
TITLE "Summertime"
PERFORMER "Ray Baretto"
INDEX 00 17:45:40
INDEX 01 17:49:25
TRACK 06 AUDIO
TITLE "El Negro Y Ray"
PERFORMER "Ray Baretto"
INDEX 00 20:44:70
INDEX 01 20:47:65
TRACK 07 AUDIO
TITLE "Mira Que Linda"
PERFORMER "Ray Baretto"
INDEX 00 26:43:30
INDEX 01 26:46:63
TRACK 08 AUDIO
TITLE "Cocinando Suave"
PERFORMER "Ray Baretto"
INDEX 00 29:17:40
INDEX 01 29:20:45
TRACK 09 AUDIO
TITLE "Pachanga Oriental"
PERFORMER "Ray Baretto"
INDEX 00 35:21:33
INDEX 01 35:25:03
TRACK 10 AUDIO
TITLE "Barretto En La Tumbadaro"
PERFORMER "Ray Baretto"
INDEX 00 38:20:58
INDEX 01 38:22:48
TRACK 11 AUDIO
TITLE "Cumbamba"
PERFORMER "Ray Baretto"
INDEX 00 41:27:28
INDEX 01 41:29:03
TRACK 12 AUDIO
TITLE "El Paso"
PERFORMER "Ray Baretto"
INDEX 00 44:19:10
INDEX 01 44:20:70
TRACK 13 AUDIO
TITLE "Linda Mulatat"
PERFORMER "Ray Baretto"
INDEX 00 47:10:65
INDEX 01 47:12:73
TRACK 14 AUDIO
TITLE "Oye Heck"
PERFORMER "Ray Baretto"
INDEX 00 50:17:60
INDEX 01 50:20:30
TRACK 15 AUDIO
TITLE "Los Cueros"
PERFORMER "Ray Baretto"
INDEX 00 53:06:03
INDEX 01 53:07:58
TRACK 16 AUDIO
TITLE "Pachanga Suavecito"
PERFORMER "Ray Baretto"
INDEX 00 56:17:58
INDEX 01 56:19:50
TRACK 17 AUDIO
TITLE "Ponte Dura"
PERFORMER "Ray Baretto"
INDEX 00 59:59:65
INDEX 01 60:01:15
TRACK 18 AUDIO
TITLE "Pachanga Para Bailar"
PERFORMER "Ray Baretto"
INDEX 00 64:01:58
INDEX 01 64:03:15
 
Состав
Ray Barretto (bongos, congas, timbales); Mike Stancerone (violin); Frank Mercado, "Chombo" Silva (tenor saxophone); Jose Canoura (flute); "El Negro" Vivar (trumpet); Alfredito Valdez, Jr. (piano); Ricky Jackson (bass); Wito Kortwright (guiro); Ray Mantilla (timbales); Willie Rodriguez, Rudy Calzado (percussion)
22:54
359
Нет комментариев. Ваш будет первым!