Поиск

(Vocal Jazz) [CD] Karen Young - La couleur du vent - 2003, FLAC (tracks+.cue), lossless

(Vocal Jazz) [CD] Karen Young - La couleur du vent - 2003, FLAC (tracks+.cue), lossless
Треклист:
Karen Young - La couleur du vent
Жанр: Vocal Jazz
Носитель: CD
Страна-производитель диска (релиза): Канада
Год издания: 2003
Издатель (лейбл): Ursh
Номер по каталогу: URCD2005
Аудиокодек: FLAC (*.flac)
Тип рипа: tracks+.cue
Битрейт аудио: lossless
Продолжительность: 67:38
Источник (релизер): Zelou
Наличие сканов в содержимом раздачи: нет
Треклист:
01. Planete (3:08)
02. La couleur du vent (6:32)
03. Quelle amoureuse (6:53)
04. Voici le vent (11:19)
05. La tempete (6:52)
06. L'ete (5:01)
07. Les oies (6:28)
08. Un passant (7:08)
09. Vers le couchant (8:05)
10. La paix de ce jardin (6:12)
 
Лог создания рипа
Exact Audio Copy V1.3 from 2. September 2016
EAC extraction logfile from 13. August 2017, 0:09
Karen Young / La couleur du vent
Used drive : ATAPI DVD A DH16AAL Adapter: 1 ID: 0
Read mode : Secure
Utilize accurate stream : Yes
Defeat audio cache : Yes
Make use of C2 pointers : No
Read offset correction : 6
Overread into Lead-In and Lead-Out : No
Fill up missing offset samples with silence : Yes
Delete leading and trailing silent blocks : No
Null samples used in CRC calculations : Yes
Used interface : Native Win32 interface for Win NT & 2000
Gap handling : Appended to previous track
Used output format : User Defined Encoder
Selected bitrate : 1024 kBit/s
Quality : High
Add ID3 tag : No
Command line compressor : C:\Program Files (x86)\Exact Audio Copy\Flac\flac.exe
Additional command line options : -8 -e -p -V -T "ARTIST=%artist%" -T "TITLE=%title%" -T "ALBUM=%albumtitle%" -T "DATE=%year%" -T "TRACKNUMBER=%tracknr%" -T "GENRE=%genre%" -T "PERFORMER=%albuminterpret%" -T "COMPOSER=%composer%" %haslyrics%--tag-from-file=LYRICS="%lyricsfile%"%haslyrics% -T "ALBUMARTIST=%albumartist%" -T "DISCNUMBER=%cdnumber%" -T "TOTALDISCS=%totalcds%" -T "TOTALTRACKS=%numtracks%" -T "COMMENT=%comment%" %source% -o %dest%
TOC of the extracted CD
Track | Start | Length | Start sector | End sector
---------------------------------------------------------
1 | 0:00.00 | 3:08.37 | 0 | 14136
2 | 3:08.37 | 6:31.65 | 14137 | 43526
3 | 9:40.27 | 6:52.73 | 43527 | 74499
4 | 16:33.25 | 11:19.15 | 74500 | 125439
5 | 27:52.40 | 6:51.55 | 125440 | 156319
6 | 34:44.20 | 5:00.52 | 156320 | 178871
7 | 39:44.72 | 6:28.35 | 178872 | 208006
8 | 46:13.32 | 7:08.00 | 208007 | 240106
9 | 53:21.32 | 8:04.45 | 240107 | 276451
10 | 61:26.02 | 6:11.60 | 276452 | 304336
Track 1
Filename C:\Zelou\EAC Rips\Karen Young - La couleur du vent (2003) [FLAC] {URCD-2005}\01 - Planète.wav
Pre-gap length 0:00:02.00
Peak level 91.7 %
Extraction speed 3.3 X
Track quality 100.0 %
Test CRC 923707A9
Copy CRC 923707A9
Accurately ripped (confidence 1) [ADE9EBCE] (AR v1)
Copy OK
Track 2
Filename C:\Zelou\EAC Rips\Karen Young - La couleur du vent (2003) [FLAC] {URCD-2005}\02 - La couleur du vent.wav
Peak level 100.0 %
Extraction speed 4.2 X
Track quality 100.0 %
Test CRC 6DF686B1
Copy CRC 6DF686B1
Accurately ripped (confidence 1) [02AD9568] (AR v1)
Copy OK
Track 3
Filename C:\Zelou\EAC Rips\Karen Young - La couleur du vent (2003) [FLAC] {URCD-2005}\03 - Quelle amoureuse.wav
Pre-gap length 0:00:01.93
Peak level 100.0 %
Extraction speed 4.2 X
Track quality 99.9 %
Test CRC 802F1DDE
Copy CRC 802F1DDE
Accurately ripped (confidence 1) [3F9026A2] (AR v1)
Copy OK
Track 4
Filename C:\Zelou\EAC Rips\Karen Young - La couleur du vent (2003) [FLAC] {URCD-2005}\04 - Voici le vent.wav
Pre-gap length 0:00:00.73
Peak level 100.0 %
Extraction speed 5.6 X
Track quality 100.0 %
Test CRC F2FAC6B0
Copy CRC F2FAC6B0
Accurately ripped (confidence 1) [B1F7F103] (AR v1)
Copy OK
Track 5
Filename C:\Zelou\EAC Rips\Karen Young - La couleur du vent (2003) [FLAC] {URCD-2005}\05 - La tempête.wav
Pre-gap length 0:00:02.30
Peak level 100.0 %
Extraction speed 6.0 X
Track quality 100.0 %
Test CRC 74B6B17F
Copy CRC 74B6B17F
Accurately ripped (confidence 1) [F4B550A9] (AR v1)
Copy OK
Track 6
Filename C:\Zelou\EAC Rips\Karen Young - La couleur du vent (2003) [FLAC] {URCD-2005}\06 - L'été.wav
Pre-gap length 0:00:03.46
Peak level 100.0 %
Extraction speed 6.1 X
Track quality 100.0 %
Test CRC 1117123D
Copy CRC 1117123D
Accurately ripped (confidence 1) [4BA9FC1B] (AR v1)
Copy OK
Track 7
Filename C:\Zelou\EAC Rips\Karen Young - La couleur du vent (2003) [FLAC] {URCD-2005}\07 - Les oies.wav
Pre-gap length 0:00:00.42
Peak level 99.9 %
Extraction speed 6.6 X
Track quality 100.0 %
Test CRC 8892437C
Copy CRC 8892437C
Accurately ripped (confidence 1) [088889E5] (AR v1)
Copy OK
Track 8
Filename C:\Zelou\EAC Rips\Karen Young - La couleur du vent (2003) [FLAC] {URCD-2005}\08 - Un passant.wav
Pre-gap length 0:00:03.49
Peak level 100.0 %
Extraction speed 7.0 X
Track quality 100.0 %
Test CRC A656D685
Copy CRC A656D685
Accurately ripped (confidence 1) [1178E189] (AR v1)
Copy OK
Track 9
Filename C:\Zelou\EAC Rips\Karen Young - La couleur du vent (2003) [FLAC] {URCD-2005}\09 - Vers le couchant.wav
Pre-gap length 0:00:02.49
Peak level 99.9 %
Extraction speed 7.5 X
Track quality 100.0 %
Test CRC A6463A78
Copy CRC A6463A78
Accurately ripped (confidence 1) [5A9ED310] (AR v1)
Copy OK
Track 10
Filename C:\Zelou\EAC Rips\Karen Young - La couleur du vent (2003) [FLAC] {URCD-2005}\10 - La paix de ce jardin.wav
Pre-gap length 0:00:03.89
Peak level 100.0 %
Extraction speed 7.6 X
Track quality 100.0 %
Test CRC 40372602
Copy CRC 40372602
Accurately ripped (confidence 1) [FABAD103] (AR v1)
Copy OK
All tracks accurately ripped
No errors occurred
End of status report
---- CUETools DB Plugin V2.1.6
[CTDB TOCID: p6arizZaasuUHnbJbTYKHnkh36s-] disk not present in database
Submit result: p6arizZaasuUHnbJbTYKHnkh36s- has been uploaded
==== Log checksum B86B965B09713A494424960CD78053426BB848C2A3C9234B39F172C57C5E6758 ====
 
Содержание индексной карты (.CUE)
REM GENRE Jazz
REM DATE 2003
REM DISCID 9D0FD90A
REM COMMENT "ExactAudioCopy v1.3"
PERFORMER "Karen Young"
TITLE "La couleur du vent"
FILE "01 - Planete.wav" WAVE
TRACK 01 AUDIO
TITLE "Planete"
PERFORMER "Karen Young"
INDEX 01 00:00:00
FILE "02 - La couleur du vent.wav" WAVE
TRACK 02 AUDIO
TITLE "La couleur du vent"
PERFORMER "Karen Young"
INDEX 01 00:00:00
TRACK 03 AUDIO
TITLE "Quelle amoureuse"
PERFORMER "Karen Young"
INDEX 00 06:29:70
FILE "03 - Quelle amoureuse.wav" WAVE
INDEX 01 00:00:00
TRACK 04 AUDIO
TITLE "Voici le vent"
PERFORMER "Karen Young"
INDEX 00 06:52:18
FILE "04 - Voici le vent.wav" WAVE
INDEX 01 00:00:00
TRACK 05 AUDIO
TITLE "La tempete"
PERFORMER "Karen Young"
INDEX 00 11:16:67
FILE "05 - La tempete.wav" WAVE
INDEX 01 00:00:00
TRACK 06 AUDIO
TITLE "L'ete"
PERFORMER "Karen Young"
INDEX 00 06:48:20
FILE "06 - L'ete.wav" WAVE
INDEX 01 00:00:00
TRACK 07 AUDIO
TITLE "Les oies"
PERFORMER "Karen Young"
INDEX 00 05:00:20
FILE "07 - Les oies.wav" WAVE
INDEX 01 00:00:00
TRACK 08 AUDIO
TITLE "Un passant"
PERFORMER "Karen Young"
INDEX 00 06:24:73
FILE "08 - Un passant.wav" WAVE
INDEX 01 00:00:00
TRACK 09 AUDIO
TITLE "Vers le couchant"
PERFORMER "Karen Young"
INDEX 00 07:05:38
FILE "09 - Vers le couchant.wav" WAVE
INDEX 01 00:00:00
TRACK 10 AUDIO
TITLE "La paix de ce jardin"
PERFORMER "Karen Young"
INDEX 00 08:00:53
FILE "10 - La paix de ce jardin.wav" WAVE
INDEX 01 00:00:00
 
Отчет CUETools
[CUETools log; Date: 01.03.2018 1:17:59; Version: 2.1.5]
[CTDB TOCID: p6arizZaasuUHnbJbTYKHnkh36s-] found.
Track | CTDB Status
1 | (1/1) Accurately ripped
2 | (1/1) Accurately ripped
3 | (1/1) Accurately ripped
4 | (1/1) Accurately ripped
5 | (1/1) Accurately ripped
6 | (1/1) Accurately ripped
7 | (1/1) Accurately ripped
8 | (1/1) Accurately ripped
9 | (1/1) Accurately ripped
10 | (1/1) Accurately ripped
[AccurateRip ID: 0018bec3-00c996be-9d0fd90a] found.
Track [ CRC | V2 ] Status
01 [ade9ebce|f83e126a] (1+0/2) Accurately ripped
02 [02ad9568|72a0e604] (1+0/2) Accurately ripped
03 [3f9026a2|4b38237c] (1+0/2) Accurately ripped
04 [b1f7f103|1dc5cced] (1+0/2) Accurately ripped
05 [f4b550a9|46b9b6eb] (1+0/2) Accurately ripped
06 [4ba9fc1b|59965c43] (1+0/2) Accurately ripped
07 [088889e5|f488bf8d] (1+0/2) Accurately ripped
08 [1178e189|ef332bfa] (1+0/2) Accurately ripped
09 [5a9ed310|1c23d33a] (1+0/2) Accurately ripped
10 [fabad103|733bf1b3] (1+0/2) Accurately ripped
Track Peak [ CRC32 ] [W/O NULL] [ LOG ]
-- 100,0 [A094278B] [42BA4F96]
01 91,7 [923707A9] [4A472A8D] CRC32
02 100,0 [6DF686B1] [5DF28F68] CRC32
03 100,0 [802F1DDE] [7EA19D4A] CRC32
04 100,0 [F2FAC6B0] [19EECC10] CRC32
05 100,0 [74B6B17F] [F9B8EF1E] CRC32
06 100,0 [1117123D] [88D89A22] CRC32
07 99,9 [8892437C] [90D05FB9] CRC32
08 100,0 [A656D685] [965D0FCB] CRC32
09 99,9 [A6463A78] [A9EDFC18] CRC32
10 100,0 [40372602] [DFF3156E] CRC32
 
Об альбоме (сборнике)
This CD is nothing short of spectacular!
I am a professional jazz singer- also Canadian, fluent in French, a published poet... originally intending a career in classical music.
I say this because Karen Young has created something so artful- melding jazz, impressionism, poetry, lyricism- into something utterly unique and her own! There are many skilled craftsmen who can meld traditions successfully, and compose and arrange well... but it's a rare artist like Ms. Young who you feel is all the while guided by an expressive sense of expressive purpose that is never drowned in the many divine colours. I love and learn from this CD!
-- Lara S. Solnicki
Приватный:
Нет (DHT включён)
Размер:
391.16 Мб (410,164,394 байт) » файлов: 17
Участники:
0 раздают, 0 качают (0 участников всего)
Внешние участники:
--- [ Обновить ]
06:50
12
Нет комментариев. Ваш будет первым!