Поиск

(Vocal Jazz) [CD] Karen Young & Eric Auclair - Electro-Beatniks - 2009, FLAC (tracks+.cue), lossless

(Vocal Jazz) [CD] Karen Young & Eric Auclair - Electro-Beatniks - 2009, FLAC (tracks+.cue), lossless
Треклист:
Karen Young & Eric Auclair - Electro-Beatniks
Жанр: Vocal Jazz
Носитель: CD
Страна-производитель диска (релиза): Канада
Год издания: 2009
Издатель (лейбл): Ursh
Номер по каталогу: URCD2007
Аудиокодек: FLAC (*.flac)
Тип рипа: tracks+.cue
Битрейт аудио: lossless
Продолжительность: 60:16
Источник (релизер): Zelou
Наличие сканов в содержимом раздачи: нет
Треклист:
01. Labyrinth (Auclair-Young) - 6:07
02. Circle of Seasons (Auclair-Young) - 5:19
03. To Be or Not to Be (Auclair-Young) - 4:26
04. Mother's Not Well (Auclair-Young-Achneepineskum) - 6:32
05. Spring Fever (Auclair-Young) - 4:45
06. Last Laugh (Auclair-Young-Owen) - 8:09
07. Poppies (Auclair-Young) - 6:00
08. Children at Play (Auclair-Young) - 4:20
09. A Riddle (Auclair-Young) - 3:25
10. Promised Land (Auclair-Young) - 5:17
11. Mystic Sky (Auclair-Young) - 5:56
Состав:
Karen Young - vocals
Eric Auclair - upright bass, electric bass, percussion, programming
Recorded at Karisma Studio.
Recording - Guy Hebert, Dominic Despins, Eric Auclair
Mixing - Guy Hebert, Eric Auclair, Karen Young
Mastering - Guy Hebert
 
Лог создания рипа
Exact Audio Copy V1.3 from 2. September 2016
EAC extraction logfile from 13. August 2017, 7:56
Karen Young & Éric Auclair / Electro-Beatniks
Used drive : ATAPI DVD A DH16AAL Adapter: 1 ID: 0
Read mode : Secure
Utilize accurate stream : Yes
Defeat audio cache : Yes
Make use of C2 pointers : No
Read offset correction : 6
Overread into Lead-In and Lead-Out : No
Fill up missing offset samples with silence : Yes
Delete leading and trailing silent blocks : No
Null samples used in CRC calculations : Yes
Used interface : Native Win32 interface for Win NT & 2000
Gap handling : Appended to previous track
Used output format : User Defined Encoder
Selected bitrate : 1024 kBit/s
Quality : High
Add ID3 tag : No
Command line compressor : C:\Program Files (x86)\Exact Audio Copy\Flac\flac.exe
Additional command line options : -8 -e -p -V -T "ARTIST=%artist%" -T "TITLE=%title%" -T "ALBUM=%albumtitle%" -T "DATE=%year%" -T "TRACKNUMBER=%tracknr%" -T "GENRE=%genre%" -T "PERFORMER=%albuminterpret%" -T "COMPOSER=%composer%" %haslyrics%--tag-from-file=LYRICS="%lyricsfile%"%haslyrics% -T "ALBUMARTIST=%albumartist%" -T "DISCNUMBER=%cdnumber%" -T "TOTALDISCS=%totalcds%" -T "TOTALTRACKS=%numtracks%" -T "COMMENT=%comment%" %source% -o %dest%
TOC of the extracted CD
Track | Start | Length | Start sector | End sector
---------------------------------------------------------
1 | 0:00.00 | 6:06.74 | 0 | 27523
2 | 6:06.74 | 5:18.74 | 27524 | 51447
3 | 11:25.73 | 4:26.29 | 51448 | 71426
4 | 15:52.27 | 6:32.06 | 71427 | 100832
5 | 22:24.33 | 4:45.05 | 100833 | 122212
6 | 27:09.38 | 8:09.32 | 122213 | 158919
7 | 35:18.70 | 6:00.08 | 158920 | 185927
8 | 41:19.03 | 4:19.63 | 185928 | 205415
9 | 45:38.66 | 3:25.01 | 205416 | 220791
10 | 49:03.67 | 5:16.58 | 220792 | 244549
11 | 54:20.50 | 5:55.53 | 244550 | 271227
Track 1
Filename C:\Zelou\EAC Rips\Karen Young & Éric Auclair - Electro-Beatniks (2009) [FALC] {URCD-2007}\01 - Labyrinth.wav
Pre-gap length 0:00:02.00
Peak level 100.0 %
Extraction speed 3.5 X
Track quality 100.0 %
Test CRC 2E5FEE6A
Copy CRC 2E5FEE6A
Accurately ripped (confidence 2) [42B6569D] (AR v1)
Copy OK
Track 2
Filename C:\Zelou\EAC Rips\Karen Young & Éric Auclair - Electro-Beatniks (2009) [FALC] {URCD-2007}\02 - Circle of Seasons.wav
Peak level 99.5 %
Extraction speed 4.0 X
Track quality 100.0 %
Test CRC F952BECE
Copy CRC F952BECE
Accurately ripped (confidence 2) [8CF1348B] (AR v1)
Copy OK
Track 3
Filename C:\Zelou\EAC Rips\Karen Young & Éric Auclair - Electro-Beatniks (2009) [FALC] {URCD-2007}\03 - To Be or Not To Be.wav
Peak level 99.9 %
Extraction speed 4.3 X
Track quality 100.0 %
Test CRC B3FC15B6
Copy CRC B3FC15B6
Accurately ripped (confidence 2) [BEA226B9] (AR v1)
Copy OK
Track 4
Filename C:\Zelou\EAC Rips\Karen Young & Éric Auclair - Electro-Beatniks (2009) [FALC] {URCD-2007}\04 - Mother's Not Well.wav
Peak level 96.7 %
Extraction speed 4.2 X
Track quality 99.9 %
Test CRC D4451229
Copy CRC D4451229
Accurately ripped (confidence 2) [2DCFCE8E] (AR v1)
Copy OK
Track 5
Filename C:\Zelou\EAC Rips\Karen Young & Éric Auclair - Electro-Beatniks (2009) [FALC] {URCD-2007}\05 - Spring Fever.wav
Peak level 99.6 %
Extraction speed 5.1 X
Track quality 100.0 %
Test CRC 3B803DC8
Copy CRC 3B803DC8
Accurately ripped (confidence 2) [C696DD22] (AR v1)
Copy OK
Track 6
Filename C:\Zelou\EAC Rips\Karen Young & Éric Auclair - Electro-Beatniks (2009) [FALC] {URCD-2007}\06 - Last Laugh.wav
Peak level 98.3 %
Extraction speed 5.7 X
Track quality 100.0 %
Test CRC A5D8D855
Copy CRC A5D8D855
Accurately ripped (confidence 2) [204A6AFA] (AR v1)
Copy OK
Track 7
Filename C:\Zelou\EAC Rips\Karen Young & Éric Auclair - Electro-Beatniks (2009) [FALC] {URCD-2007}\07 - Poppies.wav
Peak level 98.3 %
Extraction speed 6.0 X
Track quality 100.0 %
Test CRC 64F74A69
Copy CRC 64F74A69
Accurately ripped (confidence 2) [776A86A2] (AR v1)
Copy OK
Track 8
Filename C:\Zelou\EAC Rips\Karen Young & Éric Auclair - Electro-Beatniks (2009) [FALC] {URCD-2007}\08 - Children at Play.wav
Peak level 99.9 %
Extraction speed 6.0 X
Track quality 100.0 %
Test CRC 79103DE5
Copy CRC 79103DE5
Accurately ripped (confidence 2) [1EE04E49] (AR v1)
Copy OK
Track 9
Filename C:\Zelou\EAC Rips\Karen Young & Éric Auclair - Electro-Beatniks (2009) [FALC] {URCD-2007}\09 - A Riddle.wav
Peak level 99.9 %
Extraction speed 6.0 X
Track quality 100.0 %
Test CRC 3AEC34C3
Copy CRC 3AEC34C3
Accurately ripped (confidence 2) [E46A4DAC] (AR v1)
Copy OK
Track 10
Filename C:\Zelou\EAC Rips\Karen Young & Éric Auclair - Electro-Beatniks (2009) [FALC] {URCD-2007}\10 - Promised Land.wav
Peak level 99.9 %
Extraction speed 6.6 X
Track quality 100.0 %
Test CRC 830FB381
Copy CRC 830FB381
Accurately ripped (confidence 2) [31797EDA] (AR v1)
Copy OK
Track 11
Filename C:\Zelou\EAC Rips\Karen Young & Éric Auclair - Electro-Beatniks (2009) [FALC] {URCD-2007}\11 - Mystic Sky.wav
Peak level 99.9 %
Extraction speed 6.9 X
Track quality 100.0 %
Test CRC 55878D1D
Copy CRC 55878D1D
Accurately ripped (confidence 2) [0C20D8E7] (AR v1)
Copy OK
All tracks accurately ripped
No errors occurred
End of status report
---- CUETools DB Plugin V2.1.6
[CTDB TOCID: EpVwGAGAqGU.n7HrDNK8Tk170zc-] disk not present in database
Submit result: EpVwGAGAqGU.n7HrDNK8Tk170zc- has been uploaded
==== Log checksum 509FB1C9FEB011BFA8517EF2DA22F701829A737B0FD34AD6853AC89C5CB16EBD ====
 
Содержание индексной карты (.CUE)
REM GENRE Jazz
REM DATE 2009
REM DISCID 950E200B
REM COMMENT "ExactAudioCopy v1.3"
PERFORMER "Karen Young & Eric Auclair"
TITLE "Electro-Beatniks"
FILE "01 - Labyrinth.wav" WAVE
TRACK 01 AUDIO
TITLE "Labyrinth"
PERFORMER "Karen Young & Eric Auclair"
ISRC MaA6N0900101
INDEX 01 00:00:00
FILE "02 - Circle of Seasons.wav" WAVE
TRACK 02 AUDIO
TITLE "Circle of Seasons"
PERFORMER "Karen Young & Eric Auclair"
ISRC MaA6N0900102
INDEX 01 00:00:00
FILE "03 - To Be or Not to Be.wav" WAVE
TRACK 03 AUDIO
TITLE "To Be or Not to Be"
PERFORMER "Karen Young & Eric Auclair"
ISRC MaA6N0900103
INDEX 01 00:00:00
FILE "04 - Mother's Not Well.wav" WAVE
TRACK 04 AUDIO
TITLE "Mother's Not Well"
PERFORMER "Karen Young & Eric Auclair"
ISRC MaA6N0900104
INDEX 01 00:00:00
FILE "05 - Spring Fever.wav" WAVE
TRACK 05 AUDIO
TITLE "Spring Fever"
PERFORMER "Karen Young & Eric Auclair"
ISRC MaA6N0900104
INDEX 01 00:00:00
FILE "06 - Last Laugh.wav" WAVE
TRACK 06 AUDIO
TITLE "Last Laugh"
PERFORMER "Karen Young & Eric Auclair"
ISRC MaA6N0900105
INDEX 01 00:00:00
FILE "07 - Poppies.wav" WAVE
TRACK 07 AUDIO
TITLE "Poppies"
PERFORMER "Karen Young & Eric Auclair"
ISRC MaA6N0900106
INDEX 01 00:00:00
FILE "08 - Children at Play.wav" WAVE
TRACK 08 AUDIO
TITLE "Children at Play"
PERFORMER "Karen Young & Eric Auclair"
ISRC MaA6N0900108
INDEX 01 00:00:00
FILE "09 - A Riddle.wav" WAVE
TRACK 09 AUDIO
TITLE "A Riddle"
PERFORMER "Karen Young & Eric Auclair"
ISRC MaA6N0900108
INDEX 01 00:00:00
FILE "10 - Promised Land.wav" WAVE
TRACK 10 AUDIO
TITLE "Promised Land"
PERFORMER "Karen Young & Eric Auclair"
ISRC MaA6N0900109
INDEX 01 00:00:00
FILE "11 - Mystic Sky.wav" WAVE
TRACK 11 AUDIO
TITLE "Mystic Sky"
PERFORMER "Karen Young & Eric Auclair"
ISRC MaA6N0900111
INDEX 01 00:00:00
 
Отчет CUETools
[CUETools log; Date: 01.03.2018 0:59:13; Version: 2.1.5]
[CTDB TOCID: EpVwGAGAqGU.n7HrDNK8Tk170zc-] found.
Track | CTDB Status
1 | (1/1) Accurately ripped
2 | (1/1) Accurately ripped
3 | (1/1) Accurately ripped
4 | (1/1) Accurately ripped
5 | (1/1) Accurately ripped
6 | (1/1) Accurately ripped
7 | (1/1) Accurately ripped
8 | (1/1) Accurately ripped
9 | (1/1) Accurately ripped
10 | (1/1) Accurately ripped
11 | (1/1) Accurately ripped
[AccurateRip ID: 00195577-00dab7a2-950e200b] found.
Track [ CRC | V2 ] Status
01 [42b6569d|cb4c97bf] (2+0/2) Accurately ripped
02 [8cf1348b|72d55d89] (2+0/2) Accurately ripped
03 [bea226b9|f9681492] (2+0/2) Accurately ripped
04 [2dcfce8e|090915f6] (2+0/2) Accurately ripped
05 [c696dd22|167084d1] (2+0/2) Accurately ripped
06 [204a6afa|0c64b15a] (2+0/2) Accurately ripped
07 [776a86a2|1bc2f515] (2+0/2) Accurately ripped
08 [1ee04e49|f6e5041d] (2+0/2) Accurately ripped
09 [e46a4dac|b72c9f77] (2+0/2) Accurately ripped
10 [31797eda|a0873ef3] (2+0/2) Accurately ripped
11 [0c20d8e7|ec597043] (2+0/2) Accurately ripped
Track Peak [ CRC32 ] [W/O NULL] [ LOG ]
-- 100,0 [907D2958] [C4FC439C]
01 100,0 [2E5FEE6A] [8EECB63E] CRC32
02 99,5 [F952BECE] [129DFE41] CRC32
03 99,9 [B3FC15B6] [BA41488B] CRC32
04 96,7 [D4451229] [B229D1A3] CRC32
05 99,6 [3B803DC8] [4524FC5F] CRC32
06 98,3 [A5D8D855] [64B4F37C] CRC32
07 98,3 [64F74A69] [3C4890AB] CRC32
08 99,9 [79103DE5] [3EDADFCE] CRC32
09 99,9 [3AEC34C3] [7627E319] CRC32
10 99,9 [830FB381] [3F306874] CRC32
11 99,9 [55878D1D] [FAEC492B] CRC32
 
Об альбоме (сборнике)
Electro-Beatniks is the result of a collaboration between vocalist Karen Young and Eric Auclair, who contributes on bass, percussion and electronics. Young’s lyrics concern the state of the world, war, cruelty, the environment, longing for love and the trials of motherhood, and thus are both intensely personal and concerned with universal human issues. Auclair’s instrumental backing creates a dark and moody atmosphere – you get the sense that Young, by the act of creation, is expressing hope – but her hopes are not necessarily so high.
Слияние двух музыкальных миров и двух поколений художников - Karen Young и Eric Auclair, повторно изобретают classic bass / voice duo предложили новую концепцию electrojazz. Исключительный голос Karen Young, давно признана как одна из великих джазовых певиц Канады, а также замечательная атмосфера, созданная Эриком Auclair's - уникальное сочетание акустических и электронных звуков в альбоме "Electro-Beatniks". Добро пожаловать в конвергенции, которые связывают со словами бесконечное сострадание к человеческой природе удивительное путешествие, через музыку слов и поэзии звука.
Приватный:
Нет (DHT включён)
Размер:
321.46 Мб (337,070,109 байт) » файлов: 17
Участники:
0 раздают, 0 качают (0 участников всего)
Внешние участники:
--- [ Обновить ]
06:50
2
Нет комментариев. Ваш будет первым!