Поиск

(Vocal Jazz) [CD] Karen Young & Michel Donato - Contredanse - 1988, FLAC (tracks+.cue), lossless

(Vocal Jazz) [CD] Karen Young & Michel Donato - Contredanse - 1988, FLAC (tracks+.cue), lossless
Треклист:
Karen Young & Michel Donato - Contredanse
Жанр: Vocal Jazz
Носитель: CD
Страна-производитель диска (релиза): Канада
Год издания: 1988
Издатель (лейбл): Justin Time
Номер по каталогу: JTR-8410-2
Аудиокодек: FLAC (*.flac)
Тип рипа: tracks+.cue
Битрейт аудио: lossless
Продолжительность: 46:55
Источник (релизер): jaebooth
Наличие сканов в содержимом раздачи: нет
Треклист:
01. Billion Dollar Loan Shark (Young-Donato-Ferguson-Manigat) - 3:22
02. Anna Maria (Guajira Creole) (Manigat) - 3:56
03. Salsa 5 (Donato-Young-Ferguson-Manigat) - 3:20
04. Eventually (Morrison) - 3:53
05. C'est tu vraiment toi? (Manigat-Brooks-Ferguson-Donato) - 4:12
06. Hoedown for Bass (Donato) - 3:51
07. System (Young-Donato) - 6:10
08. Le silence (Manigat) - 4:50
09. Blues en dixieme (Young-Donato) - 5:47
10. Pot-Pourri Original (Donato) - 6:19
11. Epilogue (Donato) - 1:15
Состав:
Karen Young - vocals, percussion
Michel Donato - vocals, double bass, piano (#10)
Francine Martel - congas, percussion
Martial Merone - guitar
Robert LePage - clarinet
Jacek Kochan - drums
Helmut Lipsky - violin (#8)
Eval Manigat - percussion (#1)
Coral Egan, Bob Olivier - background vocals (#5)
Recorded at Studioworks and Studio 1913, Montreal.
 
Лог создания рипа
Exact Audio Copy V1.3 from 2. September 2016
EAC extraction logfile from 24. January 2017, 17:48
Karen Young & Michel Donato / Contredanse
Used drive : TSSTcorpCDDVDW SH-S203B Adapter: 1 ID: 0
Read mode : Secure
Utilize accurate stream : Yes
Defeat audio cache : Yes
Make use of C2 pointers : No
Read offset correction : 6
Overread into Lead-In and Lead-Out : No
Fill up missing offset samples with silence : Yes
Delete leading and trailing silent blocks : No
Null samples used in CRC calculations : Yes
Used interface : Native Win32 interface for Win NT & 2000
Gap handling : Appended to previous track
Used output format : User Defined Encoder
Selected bitrate : 1024 kBit/s
Quality : High
Add ID3 tag : No
Command line compressor : D:\Program Files (x86)\Exact Audio Copy\Flac\flac.exe
Additional command line options : -8 -e -p -V -T "ARTIST=%artist%" -T "TITLE=%title%" -T "ALBUM=%albumtitle%" -T "DATE=%year%" -T "TRACKNUMBER=%tracknr%" -T "GENRE=%genre%" -T "PERFORMER=%albuminterpret%" -T "COMPOSER=%composer%" %haslyrics%--tag-from-file=LYRICS="%lyricsfile%"%haslyrics% -T "ALBUMARTIST=%albumartist%" -T "DISCNUMBER=%cdnumber%" -T "TOTALDISCS=%totalcds%" -T "TOTALTRACKS=%numtracks%" -T "COMMENT=%comment%" %source% -o %dest%
TOC of the extracted CD
Track | Start | Length | Start sector | End sector
---------------------------------------------------------
1 | 0:00.00 | 3:22.02 | 0 | 15151
2 | 3:22.02 | 3:56.08 | 15152 | 32859
3 | 7:18.10 | 3:19.47 | 32860 | 47831
4 | 10:37.57 | 3:52.70 | 47832 | 65301
5 | 14:30.52 | 4:12.30 | 65302 | 84231
6 | 18:43.07 | 3:50.73 | 84232 | 101554
7 | 22:34.05 | 6:09.67 | 101555 | 129296
8 | 28:43.72 | 4:49.40 | 129297 | 151011
9 | 33:33.37 | 5:47.28 | 151012 | 177064
10 | 39:20.65 | 6:19.12 | 177065 | 205501
11 | 45:40.02 | 1:14.48 | 205502 | 211099
Track 1
Filename C:\EAC\Karen Young & Michel Donato - 1988 - Contredanse (1988 - Justin Time Records - JTR-8410-2) [CD - FLAC]\01 - Billion Dollar Loan Shark.wav
Pre-gap length 0:00:02.00
Peak level 71.2 %
Extraction speed 4.0 X
Track quality 100.0 %
Test CRC 3A10D016
Copy CRC 3A10D016
Accurately ripped (confidence 2) [9D1D5389] (AR v1)
Copy OK
Track 2
Filename C:\EAC\Karen Young & Michel Donato - 1988 - Contredanse (1988 - Justin Time Records - JTR-8410-2) [CD - FLAC]\02 - Anna Maria.wav
Pre-gap length 0:00:00.86
Peak level 75.3 %
Extraction speed 4.5 X
Track quality 100.0 %
Test CRC DBFD2102
Copy CRC DBFD2102
Accurately ripped (confidence 3) [E8F45BFE] (AR v1)
Copy OK
Track 3
Filename C:\EAC\Karen Young & Michel Donato - 1988 - Contredanse (1988 - Justin Time Records - JTR-8410-2) [CD - FLAC]\03 - Salsa 5.wav
Pre-gap length 0:00:00.46
Peak level 72.8 %
Extraction speed 4.7 X
Track quality 100.0 %
Test CRC 60C45ABC
Copy CRC 60C45ABC
Accurately ripped (confidence 3) [028D9750] (AR v1)
Copy OK
Track 4
Filename C:\EAC\Karen Young & Michel Donato - 1988 - Contredanse (1988 - Justin Time Records - JTR-8410-2) [CD - FLAC]\04 - Eventually.wav
Pre-gap length 0:00:00.60
Peak level 67.1 %
Extraction speed 5.2 X
Track quality 100.0 %
Test CRC 1AC8B53D
Copy CRC 1AC8B53D
Accurately ripped (confidence 3) [BC0B8D9F] (AR v1)
Copy OK
Track 5
Filename C:\EAC\Karen Young & Michel Donato - 1988 - Contredanse (1988 - Justin Time Records - JTR-8410-2) [CD - FLAC]\05 - C'est Tu Vraiment Toi.wav
Pre-gap length 0:00:00.20
Peak level 75.1 %
Extraction speed 5.6 X
Track quality 100.0 %
Test CRC B3139586
Copy CRC B3139586
Accurately ripped (confidence 3) [71E7DD7F] (AR v1)
Copy OK
Track 6
Filename C:\EAC\Karen Young & Michel Donato - 1988 - Contredanse (1988 - Justin Time Records - JTR-8410-2) [CD - FLAC]\06 - Hoedown For Bass.wav
Pre-gap length 0:00:01.60
Peak level 58.8 %
Extraction speed 5.8 X
Track quality 100.0 %
Test CRC C056BF2C
Copy CRC C056BF2C
Accurately ripped (confidence 3) [E5148AE5] (AR v1)
Copy OK
Track 7
Filename C:\EAC\Karen Young & Michel Donato - 1988 - Contredanse (1988 - Justin Time Records - JTR-8410-2) [CD - FLAC]\07 - System.wav
Pre-gap length 0:00:01.90
Peak level 91.4 %
Extraction speed 6.5 X
Track quality 100.0 %
Test CRC E8462F22
Copy CRC E8462F22
Accurately ripped (confidence 3) [FD562A97] (AR v1)
Copy OK
Track 8
Filename C:\EAC\Karen Young & Michel Donato - 1988 - Contredanse (1988 - Justin Time Records - JTR-8410-2) [CD - FLAC]\08 - Le Silence.wav
Pre-gap length 0:00:01.29
Peak level 65.6 %
Extraction speed 6.8 X
Track quality 100.0 %
Test CRC 32F2774C
Copy CRC 32F2774C
Accurately ripped (confidence 3) [274910B1] (AR v1)
Copy OK
Track 9
Filename C:\EAC\Karen Young & Michel Donato - 1988 - Contredanse (1988 - Justin Time Records - JTR-8410-2) [CD - FLAC]\09 - Blues en Dixième.wav
Pre-gap length 0:00:02.16
Peak level 63.5 %
Extraction speed 7.4 X
Track quality 100.0 %
Test CRC A088CB6D
Copy CRC A088CB6D
Accurately ripped (confidence 3) [A8DF9EEF] (AR v1)
Copy OK
Track 10
Filename C:\EAC\Karen Young & Michel Donato - 1988 - Contredanse (1988 - Justin Time Records - JTR-8410-2) [CD - FLAC]\10 - Pot-Pourri Original.wav
Pre-gap length 0:00:01.86
Peak level 72.7 %
Extraction speed 7.8 X
Track quality 100.0 %
Test CRC E16AB8C9
Copy CRC E16AB8C9
Accurately ripped (confidence 3) [BDD7E693] (AR v1)
Copy OK
Track 11
Filename C:\EAC\Karen Young & Michel Donato - 1988 - Contredanse (1988 - Justin Time Records - JTR-8410-2) [CD - FLAC]\11 - Epilogue.wav
Pre-gap length 0:00:03.86
Peak level 65.1 %
Extraction speed 5.8 X
Track quality 100.0 %
Test CRC C7792101
Copy CRC C7792101
Accurately ripped (confidence 3) [8C5C01CC] (AR v1)
Copy OK
All tracks accurately ripped
No errors occurred
End of status report
---- CUETools DB Plugin V2.1.6
[CTDB TOCID: VE8jN8G6XwyvsKhXQfvq1ph1930-] disk not present in database
Submit result: VE8jN8G6XwyvsKhXQfvq1ph1930- has been uploaded
==== Log checksum 9EA8E5EC9FC1ECF4BBAEABE60A8F847919BBC0DB44309E60523C761A9A1186A4 ====
 
Содержание индексной карты (.CUE)
REM GENRE Jazz
REM DATE 1988
REM DISCID 7E0AFE0B
REM COMMENT "ExactAudioCopy v1.3"
PERFORMER "Karen Young & Michel Donato"
TITLE "Contredanse"
FILE "01 - Billion Dollar Loan Shark.wav" WAVE
TRACK 01 AUDIO
TITLE "Billion Dollar Loan Shark"
PERFORMER "Karen Young & Michel Donato"
INDEX 01 00:00:00
TRACK 02 AUDIO
TITLE "Anna Maria (Guajira Creole)"
PERFORMER "Karen Young & Michel Donato"
INDEX 00 03:21:12
FILE "02 - Anna Maria (Guajira Creole).wav" WAVE
INDEX 01 00:00:00
TRACK 03 AUDIO
TITLE "Salsa 5"
PERFORMER "Karen Young & Michel Donato"
INDEX 00 03:55:48
FILE "03 - Salsa 5.wav" WAVE
INDEX 01 00:00:00
TRACK 04 AUDIO
TITLE "Eventually"
PERFORMER "Karen Young & Michel Donato"
INDEX 00 03:19:02
FILE "04 - Eventually.wav" WAVE
INDEX 01 00:00:00
TRACK 05 AUDIO
TITLE "C'est tu vraiment toi?"
PERFORMER "Karen Young & Michel Donato"
INDEX 00 03:52:55
FILE "05 - C'est tu vraiment toi.wav" WAVE
INDEX 01 00:00:00
TRACK 06 AUDIO
TITLE "Hoedown for Bass"
PERFORMER "Karen Young & Michel Donato"
INDEX 00 04:10:60
FILE "06 - Hoedown for Bass.wav" WAVE
INDEX 01 00:00:00
TRACK 07 AUDIO
TITLE "System"
PERFORMER "Karen Young & Michel Donato"
INDEX 00 03:49:05
FILE "07 - System.wav" WAVE
INDEX 01 00:00:00
TRACK 08 AUDIO
TITLE "Le silence"
PERFORMER "Karen Young & Michel Donato"
INDEX 00 06:08:45
FILE "08 - Le silence.wav" WAVE
INDEX 01 00:00:00
TRACK 09 AUDIO
TITLE "Blues en dixieme"
PERFORMER "Karen Young & Michel Donato"
INDEX 00 04:47:28
FILE "09 - Blues en dixieme.wav" WAVE
INDEX 01 00:00:00
TRACK 10 AUDIO
TITLE "Pot-Pourri Original"
PERFORMER "Karen Young & Michel Donato"
INDEX 00 05:45:38
FILE "10 - Pot-Pourri Original.wav" WAVE
INDEX 01 00:00:00
TRACK 11 AUDIO
TITLE "Epilogue"
PERFORMER "Karen Young & Michel Donato"
INDEX 00 06:15:22
FILE "11 - Epilogue.wav" WAVE
INDEX 01 00:00:00
 
Отчет CUETools
[CUETools log; Date: 01.03.2018 0:18:28; Version: 2.1.5]
[CTDB TOCID: VE8jN8G6XwyvsKhXQfvq1ph1930-] found.
Track | CTDB Status
1 | (1/1) Accurately ripped
2 | (1/1) Accurately ripped
3 | (1/1) Accurately ripped
4 | (1/1) Accurately ripped
5 | (1/1) Accurately ripped
6 | (1/1) Accurately ripped
7 | (1/1) Accurately ripped
8 | (1/1) Accurately ripped
9 | (1/1) Accurately ripped
10 | (1/1) Accurately ripped
11 | (1/1) Accurately ripped
[AccurateRip ID: 0012a12d-00a51cf8-7e0afe0b] found.
Track [ CRC | V2 ] Status
01 [9d1d5389|f3f9f966] (2+0/4) Accurately ripped
02 [e8f45bfe|fe7d239a] (3+0/5) Accurately ripped
03 [028d9750|29d88a82] (3+0/5) Accurately ripped
04 [bc0b8d9f|e679b10c] (3+0/5) Accurately ripped
05 [71e7dd7f|808d2995] (3+0/5) Accurately ripped
06 [e5148ae5|343f0838] (3+0/5) Accurately ripped
07 [fd562a97|27c6e994] (3+0/5) Accurately ripped
08 [274910b1|f21af068] (3+0/5) Accurately ripped
09 [a8df9eef|74e3c55e] (3+0/5) Accurately ripped
10 [bdd7e693|ca024d5b] (3+0/5) Accurately ripped
11 [8c5c01cc|d65b8498] (3+0/5) Accurately ripped
Offsetted by 210:
01 [16797702] (0/4) No match (V2 was not tested)
02 [57360b7f] (0/5) No match (V2 was not tested)
03 [a0ce0fc0] (0/5) No match (V2 was not tested)
04 [eb83b31e] (0/5) No match (V2 was not tested)
05 [34558874] (0/5) No match (V2 was not tested)
06 [b05a981f] (0/5) No match (V2 was not tested)
07 [809e98ae] (0/5) No match (V2 was not tested)
08 [7451a77c] (0/5) No match (V2 was not tested)
09 [7bb78579] (0/5) No match (V2 was not tested)
10 [5120c9b2] (0/5) No match (V2 was not tested)
11 [9bebe8e1] (0/5) No match (V2 was not tested)
Track Peak [ CRC32 ] [W/O NULL] [ LOG ]
-- 91,4 [9FA9B749] [86C14A93]
01 71,2 [3A10D016] [FDE3FC93] CRC32
02 75,3 [DBFD2102] [618CAF5A] CRC32
03 72,8 [60C45ABC] [DA3BF13F] CRC32
04 67,1 [1AC8B53D] [C3C71426] CRC32
05 75,1 [B3139586] [1E9CDCB2] CRC32
06 58,8 [C056BF2C] [7BE4DED4] CRC32
07 91,4 [E8462F22] [7FF40F1D] CRC32
08 65,6 [32F2774C] [AC9BFD8F] CRC32
09 63,5 [A088CB6D] [1060503C] CRC32
10 72,7 [E16AB8C9] [9EC38B14] CRC32
11 65,1 [C7792101] [E0E14D1F] CRC32
Приватный:
Нет (DHT включён)
Размер:
242.15 Мб (253,912,986 байт) » файлов: 18
Участники:
0 раздают, 0 качают (0 участников всего)
Внешние участники:
1 раздают, 0 качают (1 участников всего) [ Обновить ]
06:49
5
Нет комментариев. Ваш будет первым!