Поиск

(Vocal Jazz) [CD] Coral Egan - The Year He Drove Me Crazy - 2012, FLAC (tracks+.cue), lossless

(Vocal Jazz) [CD] Coral Egan - The Year He Drove Me Crazy - 2012, FLAC (tracks+.cue), lossless
Треклист:
Coral Egan - The Year He Drove Me Crazy
Жанр: Vocal Jazz
Носитель: CD
Страна-производитель диска (релиза): Канада
Год издания: 2012
Издатель (лейбл): Justin Time
Номер по каталогу: JUST-241-2
Аудиокодек: FLAC (*.flac)
Тип рипа: tracks+.cue
Битрейт аудио: lossless
Продолжительность: 42:48
Источник (релизер): Zelou
Наличие сканов в содержимом раздачи: да
Треклист:
01. The Year He Drove Me Crazy (4:12)
02. Soul Sunday (4:38)
03. A Couple Apartments Apart (3:56)
04. What You Doing (4:28)
05. Crossfire (4:12)
06. Unwind (3:56)
07. Wonderlove (3:33)
08. Razor Love (5:36)
09. I Do (4:27)
10. Storyline (3:50)
Состав:
Coral Egan - vocals
Robbie Kuster - drums, percussion, glass marimba, background vocals
Mishka Stein - bass, background vocals
Jon Day - piano, keyboards, B3 organ, background vocals
Warren Spicer - guitars, background vocals
Jason Levine - beatbox
Vahe Yegoyan - background vocals
 
Лог создания рипа
Exact Audio Copy V1.3 from 2. September 2016
EAC extraction logfile from 13. February 2018, 15:44
Coral Egan / The Year He Drove Me Crazy
Used drive : ATAPI DVD A DH16AAL Adapter: 1 ID: 0
Read mode : Secure
Utilize accurate stream : Yes
Defeat audio cache : Yes
Make use of C2 pointers : No
Read offset correction : 6
Overread into Lead-In and Lead-Out : No
Fill up missing offset samples with silence : Yes
Delete leading and trailing silent blocks : No
Null samples used in CRC calculations : Yes
Used interface : Native Win32 interface for Win NT & 2000
Gap handling : Appended to previous track
Used output format : User Defined Encoder
Selected bitrate : 1024 kBit/s
Quality : High
Add ID3 tag : No
Command line compressor : C:\Program Files (x86)\Exact Audio Copy\Flac\flac.exe
Additional command line options : -8 -e -p -V -T "ARTIST=%artist%" -T "TITLE=%title%" -T "ALBUM=%albumtitle%" -T "DATE=%year%" -T "TRACKNUMBER=%tracknr%" -T "GENRE=%genre%" -T "PERFORMER=%albuminterpret%" -T "COMPOSER=%composer%" %haslyrics%--tag-from-file=LYRICS="%lyricsfile%"%haslyrics% -T "ALBUMARTIST=%albumartist%" -T "DISCNUMBER=%cdnumber%" -T "TOTALDISCS=%totalcds%" -T "TOTALTRACKS=%numtracks%" -T "COMMENT=%comment%" %source% -o %dest%
TOC of the extracted CD
Track | Start | Length | Start sector | End sector
---------------------------------------------------------
1 | 0:00.00 | 4:12.18 | 0 | 18917
2 | 4:12.18 | 4:38.00 | 18918 | 39767
3 | 8:50.18 | 3:55.58 | 39768 | 57450
4 | 12:46.01 | 4:28.27 | 57451 | 77577
5 | 17:14.28 | 4:12.30 | 77578 | 96507
6 | 21:26.58 | 3:55.45 | 96508 | 114177
7 | 25:22.28 | 3:33.07 | 114178 | 130159
8 | 28:55.35 | 5:35.60 | 130160 | 155344
9 | 34:31.20 | 4:26.58 | 155345 | 175352
10 | 38:58.03 | 3:50.22 | 175353 | 192624
Track 1
Filename C:\Zelou\EAC Rips\Coral Egan - The Year He Drove Me Crazy (2012) [CD FLAC] {JUST241-2}\01 - The Year He Drove Me Crazy.wav
Pre-gap length 0:00:02.00
Peak level 97.6 %
Extraction speed 1.8 X
Track quality 100.0 %
Test CRC 75BEA33C
Copy CRC 75BEA33C
Accurately ripped (confidence 7) [54C5DA6B] (AR v2)
Copy OK
Track 2
Filename C:\Zelou\EAC Rips\Coral Egan - The Year He Drove Me Crazy (2012) [CD FLAC] {JUST241-2}\02 - Soul Sunday.wav
Peak level 97.6 %
Extraction speed 2.0 X
Track quality 100.0 %
Test CRC 795E40BF
Copy CRC 795E40BF
Accurately ripped (confidence 7) [590610FA] (AR v2)
Copy OK
Track 3
Filename C:\Zelou\EAC Rips\Coral Egan - The Year He Drove Me Crazy (2012) [CD FLAC] {JUST241-2}\03 - A Couple Apartments Apart.wav
Peak level 97.6 %
Extraction speed 2.2 X
Track quality 100.0 %
Test CRC 1114A349
Copy CRC 1114A349
Accurately ripped (confidence 7) [77686447] (AR v2)
Copy OK
Track 4
Filename C:\Zelou\EAC Rips\Coral Egan - The Year He Drove Me Crazy (2012) [CD FLAC] {JUST241-2}\04 - What You Doing.wav
Peak level 97.6 %
Extraction speed 2.4 X
Track quality 100.0 %
Test CRC 656159B0
Copy CRC 656159B0
Accurately ripped (confidence 7) [FFEC1452] (AR v2)
Copy OK
Track 5
Filename C:\Zelou\EAC Rips\Coral Egan - The Year He Drove Me Crazy (2012) [CD FLAC] {JUST241-2}\05 - Crossfire.wav
Peak level 97.6 %
Extraction speed 1.2 X
Track quality 99.8 %
Test CRC 50CF43E3
Copy CRC 50CF43E3
Accurately ripped (confidence 7) [C995B825] (AR v2)
Copy OK
Track 6
Filename C:\Zelou\EAC Rips\Coral Egan - The Year He Drove Me Crazy (2012) [CD FLAC] {JUST241-2}\06 - Unwind.wav
Peak level 97.6 %
Extraction speed 1.2 X
Track quality 99.8 %
Test CRC 655CBF0B
Copy CRC 655CBF0B
Accurately ripped (confidence 7) [261C96FC] (AR v2)
Copy OK
Track 7
Filename C:\Zelou\EAC Rips\Coral Egan - The Year He Drove Me Crazy (2012) [CD FLAC] {JUST241-2}\07 - Wonderlove.wav
Peak level 97.6 %
Extraction speed 1.9 X
Track quality 99.9 %
Test CRC 08FA9084
Copy CRC 08FA9084
Accurately ripped (confidence 7) [3504A7F8] (AR v2)
Copy OK
Track 8
Filename C:\Zelou\EAC Rips\Coral Egan - The Year He Drove Me Crazy (2012) [CD FLAC] {JUST241-2}\08 - Razor Love.wav
Peak level 97.6 %
Extraction speed 3.1 X
Track quality 100.0 %
Test CRC A4C599D0
Copy CRC A4C599D0
Accurately ripped (confidence 7) [9D9B8140] (AR v2)
Copy OK
Track 9
Filename C:\Zelou\EAC Rips\Coral Egan - The Year He Drove Me Crazy (2012) [CD FLAC] {JUST241-2}\09 - I Do.wav
Peak level 97.6 %
Extraction speed 3.2 X
Track quality 100.0 %
Test CRC 4CD0AF5F
Copy CRC 4CD0AF5F
Accurately ripped (confidence 7) [839F8B23] (AR v2)
Copy OK
Track 10
Filename C:\Zelou\EAC Rips\Coral Egan - The Year He Drove Me Crazy (2012) [CD FLAC] {JUST241-2}\10 - Storyline.wav
Peak level 97.6 %
Extraction speed 3.2 X
Track quality 100.0 %
Test CRC 43891A74
Copy CRC 43891A74
Accurately ripped (confidence 7) [A5556647] (AR v2)
Copy OK
All tracks accurately ripped
No errors occurred
End of status report
---- CUETools DB Plugin V2.1.6
[CTDB TOCID: xQmBjt9nbdEpsR9bujwTad53vNI-] found
Submit result: xQmBjt9nbdEpsR9bujwTad53vNI- has been confirmed
Track | CTDB Status
1 | (10/11) Accurately ripped
2 | (10/11) Accurately ripped
3 | (10/11) Accurately ripped
4 | (10/11) Accurately ripped
5 | (10/11) Accurately ripped
6 | (10/11) Accurately ripped
7 | (10/11) Accurately ripped
8 | (10/11) Accurately ripped
9 | (10/11) Accurately ripped
10 | (10/11) Accurately ripped
==== Log checksum 1730DAB2C63556A8BB48DBE6D76AC653CDBE9D2C480785F763BEE6FB881CC488 ====
 
Содержание индексной карты (.CUE)
REM GENRE Jazz
REM DATE 2012
REM DISCID 7C0A080A
REM COMMENT "ExactAudioCopy v1.3"
PERFORMER "Coral Egan"
TITLE "The Year He Drove Me Crazy"
FILE "01 - The Year He Drove Me Crazy.wav" WAVE
TRACK 01 AUDIO
TITLE "The Year He Drove Me Crazy"
PERFORMER "Coral Egan"
ISRC MaJ221224101
INDEX 01 00:00:00
FILE "02 - Soul Sunday.wav" WAVE
TRACK 02 AUDIO
TITLE "Soul Sunday"
PERFORMER "Coral Egan"
ISRC MaJ221224102
INDEX 01 00:00:00
FILE "03 - A Couple Apartments Apart.wav" WAVE
TRACK 03 AUDIO
TITLE "A Couple Apartments Apart"
PERFORMER "Coral Egan"
ISRC MaJ221224103
INDEX 01 00:00:00
FILE "04 - What You Doing.wav" WAVE
TRACK 04 AUDIO
TITLE "What You Doing"
PERFORMER "Coral Egan"
ISRC MaJ221224104
INDEX 01 00:00:00
FILE "05 - Crossfire.wav" WAVE
TRACK 05 AUDIO
TITLE "Crossfire"
PERFORMER "Coral Egan"
ISRC MaJ221224105
INDEX 01 00:00:00
FILE "06 - Unwind.wav" WAVE
TRACK 06 AUDIO
TITLE "Unwind"
PERFORMER "Coral Egan"
ISRC MaJ221224105
INDEX 01 00:00:00
FILE "07 - Wonderlove.wav" WAVE
TRACK 07 AUDIO
TITLE "Wonderlove"
PERFORMER "Coral Egan"
ISRC MaJ221224107
INDEX 01 00:00:00
FILE "08 - Razor Love.wav" WAVE
TRACK 08 AUDIO
TITLE "Razor Love"
PERFORMER "Coral Egan"
ISRC MaJ221224108
INDEX 01 00:00:00
FILE "09 - I Do.wav" WAVE
TRACK 09 AUDIO
TITLE "I Do"
PERFORMER "Coral Egan"
ISRC MaJ221224109
INDEX 01 00:00:00
FILE "10 - Storyline.wav" WAVE
TRACK 10 AUDIO
TITLE "Storyline"
PERFORMER "Coral Egan"
ISRC MaJ221224109
INDEX 01 00:00:00
 
Отчет CUETools
[CUETools log; Date: 28.02.2018 23:38:26; Version: 2.1.5]
[CTDB TOCID: xQmBjt9nbdEpsR9bujwTad53vNI-] found.
Track | CTDB Status
1 | (11/12) Accurately ripped
2 | (11/12) Accurately ripped
3 | (11/12) Accurately ripped
4 | (11/12) Accurately ripped
5 | (11/12) Accurately ripped
6 | (11/12) Accurately ripped
7 | (11/12) Accurately ripped
8 | (11/12) Accurately ripped
9 | (11/12) Accurately ripped
10 | (11/12) Accurately ripped
[AccurateRip ID: 0010245c-00812a17-7c0a080a] found.
Track [ CRC | V2 ] Status
01 [bd3495c4|54c5da6b] (0+7/7) Accurately ripped
02 [5aca4aa1|590610fa] (0+7/7) Accurately ripped
03 [8095adeb|77686447] (0+7/7) Accurately ripped
04 [933e4bb5|ffec1452] (0+7/7) Accurately ripped
05 [442b17e6|c995b825] (0+7/7) Accurately ripped
06 [ba3ee0bc|261c96fc] (0+7/7) Accurately ripped
07 [fbe393db|3504a7f8] (0+7/7) Accurately ripped
08 [a5c74264|9d9b8140] (0+7/7) Accurately ripped
09 [ff0afd9e|839f8b23] (0+7/7) Accurately ripped
10 [581d3886|a5556647] (0+7/7) Accurately ripped
Track Peak [ CRC32 ] [W/O NULL] [ LOG ]
-- 97,6 [4C373BCD] [28A64BCF]
01 97,6 [75BEA33C] [B0996FD8] CRC32
02 97,6 [795E40BF] [1FEB9520] CRC32
03 97,6 [1114A349] [D8174E62] CRC32
04 97,6 [656159B0] [CD4ADA86] CRC32
05 97,6 [50CF43E3] [895F20CC] CRC32
06 97,6 [655CBF0B] [CF169459] CRC32
07 97,6 [08FA9084] [59D42D4D] CRC32
08 97,6 [A4C599D0] [EFC97C47] CRC32
09 97,6 [4CD0AF5F] [099D6274] CRC32
10 97,6 [43891A74] [702173A6] CRC32
 
Review by Bernard Perusse
Coral Egan’s return to the studio after five years has yielded an album so personal that it names.
The singer, assisted by songwriter-producer Albert Chambers, has crafted a 10-song set that flirts with cinéma-vérité in its examination of her private life with daughter Lola and partner Vahé Yegoyan. Both are namechecked — along with the family dog — in the sunny, effervescent urban soul track Soul Sunday, which celebrates weekend domestic bliss.
And the directness doesn’t quite end there: Yegoyan shares the cover and some of the album art with Egan, which might make the story a little too specific and literal for some listeners.
But if head-over-heels romance is not what you’re up for, the story has its darker corners: the irritation with a commitment-phobic mate in the gentle rocker What You Doin’, the anxiety of the child caught in a parental power play in the stately Crossfire and the soul-baring neediness of I Do will resonate with any listener whose relationship is going through a rough patch.
Musically, the album once again draws from the golden-era singer-songwriters and the blue-eyed soul that have often inspired Egan to pay stylistic tribute. There’s a generous helping of Steely Dan here, a bit of Laura Nyro there and a dash of Joni Mitchell elsewhere. There’s even some Neil Young — quite literally — in the album’s sole cover version, Razor Love. All of it comes in a spare, sophisticated setting, driven by a piano-trio core.
Patrick Watson members Robbie Kuster and Mishka Stein make up the highly empathetic rhythm section, with Warren Spicer of Plants and Animals making a guest appearance. Surprisingly, the piano work is entirely handled by Jon Day, leaving Egan to focus entirely on singing.
The chemistry of this studio gathering works, yielding a bright, airy performance that would fit with Saturday night after the party or family breakfast the next day.
Скачивание доступно после регистрации!!
Приватный:
Нет (DHT включён)
Размер:
240.46 Мб (252,136,606 байт) » файлов: 20
Участники:
0 раздают, 0 качают (0 участников всего)
Внешние участники:
3 раздают, 1 качают (4 участников всего) [ Обновить ]
06:48
19
Нет комментариев. Ваш будет первым!