Поиск

(Vocal Jazz) [CD] Karen Young & Coral Egan - Dreamers - 2017, FLAC (tracks+.cue), lossless

(Vocal Jazz) [CD] Karen Young & Coral Egan - Dreamers - 2017, FLAC (tracks+.cue), lossless
Треклист:
Karen Young & Coral Egan - Dreamers
Жанр: Vocal Jazz
Носитель: CD
Страна-производитель диска (релиза): Канада
Год издания: 2017
Издатель (лейбл): Ursh
Номер по каталогу: URCD2017
Аудиокодек: FLAC (*.flac)
Тип рипа: tracks+.cue
Битрейт аудио: lossless
Продолжительность: 46:53
Источник (релизер): Zelou
Наличие сканов в содержимом раздачи: да
Треклист:
01. Tongue Tied (Egan) - 3:18
02. Quantas Voltas da Meu Mundo (Djavan) - 4:04
03. Valser en mi bemol (Major) - 3:47
04. Pilgrimage to the Sun (Young) - 4:04
05. Somebody Special (Lacy) - 5:33
06. Breathe (Egan) - 4:27
07. Interlude (Gregoire-Rousseau/Erizias) - 0:54
08. Les oies (Vigneault-Young) - 5:02
09. Corpus Christi (Britten) - 3:04
10. Ben Seni Sevdugumi (Koyuncu) - 6:14
11. Jon Song (Egan) - 3:55
12. Old Blue (Trad. American) - 2:31
Состав:
Karen Young - vocals, shaker (#2)
Coral Egan - vocals, piano (#6), guitar (#1,11)
Eveline Gregoire-Rousseau - acoustic harp, electric harp, vocals (#1,2,6)
Pierre-Harry Erizias - electric bass, vocals (#1,6), guitar (#1)
Bertil Schulrabe - drums, percussion
Vanessa Marcoux - violin
Doug Young (#1,8,11), Isabelle Young (#1,8,11), Lola Egan (#1) - vocals
Recorded at Studio Dandurand, Montreal.
 
Лог создания рипа
Exact Audio Copy V1.3 from 2. September 2016
EAC extraction logfile from 17. March 2017, 6:50
Karen Young & Coral Egan / Dreamers
Used drive : ATAPI DVD A DH16AAL Adapter: 1 ID: 0
Read mode : Secure
Utilize accurate stream : Yes
Defeat audio cache : Yes
Make use of C2 pointers : No
Read offset correction : 6
Overread into Lead-In and Lead-Out : No
Fill up missing offset samples with silence : Yes
Delete leading and trailing silent blocks : No
Null samples used in CRC calculations : Yes
Used interface : Native Win32 interface for Win NT & 2000
Gap handling : Appended to previous track
Used output format : User Defined Encoder
Selected bitrate : 1024 kBit/s
Quality : High
Add ID3 tag : No
Command line compressor : C:\Program Files (x86)\Exact Audio Copy\Flac\flac.exe
Additional command line options : -8 -e -p -V -T "ARTIST=%artist%" -T "TITLE=%title%" -T "ALBUM=%albumtitle%" -T "DATE=%year%" -T "TRACKNUMBER=%tracknr%" -T "GENRE=%genre%" -T "PERFORMER=%albuminterpret%" -T "COMPOSER=%composer%" %haslyrics%--tag-from-file=LYRICS="%lyricsfile%"%haslyrics% -T "ALBUMARTIST=%albumartist%" -T "DISCNUMBER=%cdnumber%" -T "TOTALDISCS=%totalcds%" -T "TOTALTRACKS=%numtracks%" -T "COMMENT=%comment%" %source% -o %dest%
TOC of the extracted CD
Track | Start | Length | Start sector | End sector
---------------------------------------------------------
1 | 0:00.00 | 3:18.36 | 0 | 14885
2 | 3:18.36 | 4:04.12 | 14886 | 33197
3 | 7:22.48 | 3:46.48 | 33198 | 50195
4 | 11:09.21 | 4:04.27 | 50196 | 68522
5 | 15:13.48 | 5:33.34 | 68523 | 93531
6 | 20:47.07 | 4:27.32 | 93532 | 113588
7 | 25:14.39 | 0:54.29 | 113589 | 117667
8 | 26:08.68 | 5:01.57 | 117668 | 140299
9 | 31:10.50 | 3:03.69 | 140300 | 154093
10 | 34:14.44 | 6:14.11 | 154094 | 182154
11 | 40:28.55 | 3:55.07 | 182155 | 199786
12 | 44:23.62 | 2:30.50 | 199787 | 211086
Track 1
Filename C:\Zelou\EAC Rips\Karen Young & Coral Egan - Dreamers (2017) [FLAC] {URCD2017}\01 - Tongue Tied.wav
Pre-gap length 0:00:02.00
Peak level 95.6 %
Extraction speed 1.7 X
Track quality 100.0 %
Test CRC 89EAA4C9
Copy CRC 89EAA4C9
Track not present in AccurateRip database
Copy OK
Track 2
Filename C:\Zelou\EAC Rips\Karen Young & Coral Egan - Dreamers (2017) [FLAC] {URCD2017}\02 - Quantas Voltas Da Meu Mundo.wav
Peak level 94.3 %
Extraction speed 2.0 X
Track quality 100.0 %
Test CRC D3C62AE9
Copy CRC D3C62AE9
Track not present in AccurateRip database
Copy OK
Track 3
Filename C:\Zelou\EAC Rips\Karen Young & Coral Egan - Dreamers (2017) [FLAC] {URCD2017}\03 - Valse en mi bémol.wav
Peak level 90.7 %
Extraction speed 2.1 X
Track quality 100.0 %
Test CRC 041E3632
Copy CRC 041E3632
Track not present in AccurateRip database
Copy OK
Track 4
Filename C:\Zelou\EAC Rips\Karen Young & Coral Egan - Dreamers (2017) [FLAC] {URCD2017}\04 - Pilgrimage To The Sun.wav
Peak level 90.4 %
Extraction speed 1.7 X
Track quality 99.9 %
Test CRC 88B48044
Copy CRC 88B48044
Track not present in AccurateRip database
Copy OK
Track 5
Filename C:\Zelou\EAC Rips\Karen Young & Coral Egan - Dreamers (2017) [FLAC] {URCD2017}\05 - Somebody Special.wav
Peak level 99.9 %
Extraction speed 2.6 X
Track quality 100.0 %
Test CRC 01CDF9D7
Copy CRC 01CDF9D7
Track not present in AccurateRip database
Copy OK
Track 6
Filename C:\Zelou\EAC Rips\Karen Young & Coral Egan - Dreamers (2017) [FLAC] {URCD2017}\06 - Breathe.wav
Peak level 90.8 %
Extraction speed 2.7 X
Track quality 100.0 %
Test CRC C12E309D
Copy CRC C12E309D
Track not present in AccurateRip database
Copy OK
Track 7
Filename C:\Zelou\EAC Rips\Karen Young & Coral Egan - Dreamers (2017) [FLAC] {URCD2017}\07 - Interlude.wav
Peak level 89.6 %
Extraction speed 1.8 X
Track quality 100.0 %
Test CRC 76D2F70A
Copy CRC 76D2F70A
Track not present in AccurateRip database
Copy OK
Track 8
Filename C:\Zelou\EAC Rips\Karen Young & Coral Egan - Dreamers (2017) [FLAC] {URCD2017}\08 - Les oies.wav
Peak level 92.8 %
Extraction speed 2.3 X
Track quality 99.9 %
Test CRC B697057A
Copy CRC B697057A
Track not present in AccurateRip database
Copy OK
Track 9
Filename C:\Zelou\EAC Rips\Karen Young & Coral Egan - Dreamers (2017) [FLAC] {URCD2017}\09 - Corpus Christi.wav
Peak level 89.4 %
Extraction speed 1.9 X
Track quality 99.9 %
Test CRC C9C65557
Copy CRC C9C65557
Track not present in AccurateRip database
Copy OK
Track 10
Filename C:\Zelou\EAC Rips\Karen Young & Coral Egan - Dreamers (2017) [FLAC] {URCD2017}\10 - Ben Seni Sevdugumi.wav
Peak level 86.6 %
Extraction speed 2.6 X
Track quality 99.9 %
Test CRC 7CA24DC6
Copy CRC 7CA24DC6
Track not present in AccurateRip database
Copy OK
Track 11
Filename C:\Zelou\EAC Rips\Karen Young & Coral Egan - Dreamers (2017) [FLAC] {URCD2017}\11 - Jon Song.wav
Peak level 90.4 %
Extraction speed 3.3 X
Track quality 100.0 %
Test CRC 8988ACE0
Copy CRC 8988ACE0
Track not present in AccurateRip database
Copy OK
Track 12
Filename C:\Zelou\EAC Rips\Karen Young & Coral Egan - Dreamers (2017) [FLAC] {URCD2017}\12 - Old Blue.wav
Peak level 90.9 %
Extraction speed 3.1 X
Track quality 100.0 %
Test CRC 7F26A184
Copy CRC 7F26A184
Track not present in AccurateRip database
Copy OK
None of the tracks are present in the AccurateRip database
No errors occurred
End of status report
---- CUETools DB Plugin V2.1.6
[CTDB TOCID: 3AYsPBKiJX2_PnPg_7WTwykrSZk-] disk not present in database
Submit result: 3AYsPBKiJX2_PnPg_7WTwykrSZk- has been uploaded
==== Log checksum 8C10E9FE23D2BE5CCEC9419746438551B72E66BE0434584FCB972571B3F01E10 ====
 
Содержание индексной карты (.CUE)
REM GENRE Jazz
REM DATE 2017
REM DISCID 920AFE0C
REM COMMENT "ExactAudioCopy v1.3"
PERFORMER "Karen Young & Coral Egan"
TITLE "Dreamers"
FILE "01 - Tongue Tied.wav" WAVE
TRACK 01 AUDIO
TITLE "Tongue Tied"
PERFORMER "Karen Young & Coral Egan"
ISRC MaA6N1501301
INDEX 01 00:00:00
FILE "02 - Quantas Voltas da Meu Mundo.wav" WAVE
TRACK 02 AUDIO
TITLE "Quantas Voltas da Meu Mundo"
PERFORMER "Karen Young & Coral Egan"
ISRC MaA6N1501302
INDEX 01 00:00:00
FILE "03 - Valser en mi bemol.wav" WAVE
TRACK 03 AUDIO
TITLE "Valser en mi bemol"
PERFORMER "Karen Young & Coral Egan"
ISRC MaA6N1501303
INDEX 01 00:00:00
FILE "04 - Pilgrimage to the Sun.wav" WAVE
TRACK 04 AUDIO
TITLE "Pilgrimage to the Sun"
PERFORMER "Karen Young & Coral Egan"
ISRC MaA6N1501304
INDEX 01 00:00:00
FILE "05 - Somebody Special.wav" WAVE
TRACK 05 AUDIO
TITLE "Somebody Special"
PERFORMER "Karen Young & Coral Egan"
ISRC MaA6N1501305
INDEX 01 00:00:00
FILE "06 - Breathe.wav" WAVE
TRACK 06 AUDIO
TITLE "Breathe"
PERFORMER "Karen Young & Coral Egan"
ISRC MaA6N1501306
INDEX 01 00:00:00
FILE "07 - Interlude.wav" WAVE
TRACK 07 AUDIO
TITLE "Interlude"
PERFORMER "Karen Young & Coral Egan"
ISRC MaA6N1501307
INDEX 01 00:00:00
FILE "08 - Les oies.wav" WAVE
TRACK 08 AUDIO
TITLE "Les oies"
PERFORMER "Karen Young & Coral Egan"
ISRC MaA6N1501308
INDEX 01 00:00:00
FILE "09 - Corpus Christi.wav" WAVE
TRACK 09 AUDIO
TITLE "Corpus Christi"
PERFORMER "Karen Young & Coral Egan"
ISRC MaA6N1501309
INDEX 01 00:00:00
FILE "10 - Ben Seni Sevdugumi.wav" WAVE
TRACK 10 AUDIO
TITLE "Ben Seni Sevdugumi"
PERFORMER "Karen Young & Coral Egan"
ISRC MaA6N1501310
INDEX 01 00:00:00
FILE "11 - Jon Song.wav" WAVE
TRACK 11 AUDIO
TITLE "Jon Song"
PERFORMER "Karen Young & Coral Egan"
ISRC MaA6N1501311
INDEX 01 00:00:00
FILE "12 - Old Blue.wav" WAVE
TRACK 12 AUDIO
TITLE "Old Blue"
PERFORMER "Karen Young & Coral Egan"
ISRC MaA6N1501312
INDEX 01 00:00:00
 
Отчет CUETools
[CUETools log; Date: 28.02.2018 23:19:05; Version: 2.1.5]
[CTDB TOCID: 3AYsPBKiJX2_PnPg_7WTwykrSZk-] found.
Track | CTDB Status
1 | (2/2) Accurately ripped
2 | (2/2) Accurately ripped
3 | (2/2) Accurately ripped
4 | (2/2) Accurately ripped
5 | (2/2) Accurately ripped
6 | (2/2) Accurately ripped
7 | (2/2) Accurately ripped
8 | (2/2) Accurately ripped
9 | (2/2) Accurately ripped
10 | (2/2) Accurately ripped
11 | (2/2) Accurately ripped
12 | (2/2) Accurately ripped
[AccurateRip ID: 00150ac7-00c52231-920afe0c] disk not present in database.
Track Peak [ CRC32 ] [W/O NULL] [ LOG ]
-- 99,9 [8067F64A] [2F440675]
01 95,6 [89EAA4C9] [B4BF0FFF] CRC32
02 94,3 [D3C62AE9] [25F5B85A] CRC32
03 90,7 [041E3632] [D811DE21] CRC32
04 90,4 [88B48044] [99DA8AEF] CRC32
05 99,9 [01CDF9D7] [5BA1D2EF] CRC32
06 90,8 [C12E309D] [87CE6006] CRC32
07 89,6 [76D2F70A] [F5C6D5C6] CRC32
08 92,8 [B697057A] [0F3F65FD] CRC32
09 89,4 [C9C65557] [737077FF] CRC32
10 86,6 [7CA24DC6] [2DAEAF58] CRC32
11 90,4 [8988ACE0] [0FF8B515] CRC32
12 90,9 [7F26A184] [5529CF9B] CRC32
 
Об альбоме (сборнике)
Montreal mother and daughter, who have always shared a passion for music, take their partnership to the next level with a new album. Dreamers is a delight. The globe-trotting, stylistically voracious collection of duets is a tribute to the pair’s varied influences, from the breezy Quantas Voltas Dá Meu Mundo, by Brazil’s Djavan; to the mischievously twisted Somebody, by late American jazz saxophonist Steve Lacy; Valser en mi Bémol, by Quebec’s Catherine Major; classical great Benjamin Britten’s Corpus Christi; and Turkish treat Ben Seni Sevdugumi, by the late Kazim Koyuncu.
Скачивание доступно после регистрации!!
Приватный:
Нет (DHT включён)
Размер:
236.37 Мб (247,847,723 байт) » файлов: 22
Участники:
0 раздают, 0 качают (0 участников всего)
Внешние участники:
2 раздают, 1 качают (3 участников всего) [ Обновить ]
06:48
6
Нет комментариев. Ваш будет первым!