Поиск

(Vocal Jazz) [CD] Angela Galuppo - Angela Galuppo - 2013, FLAC (tracks+.cue), lossless

(Vocal Jazz) [CD] Angela Galuppo - Angela Galuppo - 2013, FLAC (tracks+.cue), lossless
Треклист:
Angela Galuppo - Angela Galuppo
Жанр: Vocal Jazz
Носитель: CD
Страна-производитель диска (релиза): Канада
Год издания: 2013
Издатель (лейбл): Justin Time Records
Номер по каталогу: JUST 252
Аудиокодек: FLAC (*.flac)
Тип рипа: tracks+.cue
Битрейт аудио: lossless
Продолжительность: 55:09
Источник (релизер): Zelou
Наличие сканов в содержимом раздачи: сетевые
Треклист:
01. Tea for Two (Caesar-Youmans) - 4:04
02. My One & Only Love (Mellin-Wood) - 5:28
03. I Only Have Eyes for You (Dubin-Warren) - 4:50
04. I Never Dreamed You'd Leave in Summer (Wonder-Wright) - 4:35
05. The Very Thought of You (Noble) - 4:44
06. Thank You for Being a Friend (Gold) - 3:58
07. Eleanor Rigby (Lennon-McCartney) - 5:32
08. The Only One (Auerbach-Carney) - 5:20
09. S'Wonderful (Gershwin-Gershwin) - 3:15
10. I Feel for You (Prince) - 5:47
11. Jesus Etc. (Bennett-Tweedy) - 3:32
12. Make Someone Happy (Comden-Green) - 4:04
Состав:
Angela Galuppo - vocals
John Sadowy - piano
Morgan Moore, Paul Van Dyk (#11) - bass
Richard Irwin, Dave Laing (#11) - drums
Andy Dacoulis - guitar
Aron Doyle - trumpet (#10)
 
Лог создания рипа
Exact Audio Copy V1.3 from 2. September 2016
EAC extraction logfile from 19. February 2018, 19:51
Angela Galuppo / Angela Galuppo
Used drive : ATAPI DVD A DH16AAL Adapter: 1 ID: 0
Read mode : Secure
Utilize accurate stream : Yes
Defeat audio cache : Yes
Make use of C2 pointers : No
Read offset correction : 6
Overread into Lead-In and Lead-Out : No
Fill up missing offset samples with silence : Yes
Delete leading and trailing silent blocks : No
Null samples used in CRC calculations : Yes
Used interface : Native Win32 interface for Win NT & 2000
Gap handling : Appended to previous track
Used output format : User Defined Encoder
Selected bitrate : 1024 kBit/s
Quality : High
Add ID3 tag : No
Command line compressor : C:\Program Files (x86)\Exact Audio Copy\Flac\flac.exe
Additional command line options : -8 -e -p -V -T "ARTIST=%artist%" -T "TITLE=%title%" -T "ALBUM=%albumtitle%" -T "DATE=%year%" -T "TRACKNUMBER=%tracknr%" -T "GENRE=%genre%" -T "PERFORMER=%albuminterpret%" -T "COMPOSER=%composer%" %haslyrics%--tag-from-file=LYRICS="%lyricsfile%"%haslyrics% -T "ALBUMARTIST=%albumartist%" -T "DISCNUMBER=%cdnumber%" -T "TOTALDISCS=%totalcds%" -T "TOTALTRACKS=%numtracks%" -T "COMMENT=%comment%" %source% -o %dest%
TOC of the extracted CD
Track | Start | Length | Start sector | End sector
---------------------------------------------------------
1 | 0:00.00 | 4:03.69 | 0 | 18293
2 | 4:03.69 | 5:27.61 | 18294 | 42879
3 | 9:31.55 | 4:50.25 | 42880 | 64654
4 | 14:22.05 | 4:34.60 | 64655 | 85264
5 | 18:56.65 | 4:44.12 | 85265 | 106576
6 | 23:41.02 | 3:57.60 | 106577 | 124411
7 | 27:38.62 | 5:32.04 | 124412 | 149315
8 | 33:10.66 | 5:20.06 | 149316 | 173321
9 | 38:30.72 | 3:14.61 | 173322 | 187932
10 | 41:45.58 | 5:46.58 | 187933 | 213940
11 | 47:32.41 | 3:31.47 | 213941 | 229812
12 | 51:04.13 | 4:04.34 | 229813 | 248146
Track 1
Filename C:\Zelou\EAC Rips\Angela Galuppo - Angela Galuppo (2013) [CD FLAC] {JUST 252-2}\01 - Tea For Two.wav
Pre-gap length 0:00:02.00
Peak level 97.6 %
Extraction speed 1.8 X
Track quality 100.0 %
Test CRC AC479F14
Copy CRC AC479F14
Accurately ripped (confidence 3) [F5D76DCB] (AR v2)
Copy OK
Track 2
Filename C:\Zelou\EAC Rips\Angela Galuppo - Angela Galuppo (2013) [CD FLAC] {JUST 252-2}\02 - My One and Only Love.wav
Peak level 97.6 %
Extraction speed 2.1 X
Track quality 100.0 %
Test CRC DDA791EC
Copy CRC DDA791EC
Accurately ripped (confidence 3) [86F67F2B] (AR v2)
Copy OK
Track 3
Filename C:\Zelou\EAC Rips\Angela Galuppo - Angela Galuppo (2013) [CD FLAC] {JUST 252-2}\03 - I Only Have Eyes for You.wav
Peak level 97.6 %
Extraction speed 2.3 X
Track quality 100.0 %
Test CRC 21F13BC7
Copy CRC 21F13BC7
Accurately ripped (confidence 3) [55B9613B] (AR v2)
Copy OK
Track 4
Filename C:\Zelou\EAC Rips\Angela Galuppo - Angela Galuppo (2013) [CD FLAC] {JUST 252-2}\04 - I Never Dreamed You'd Leave in Summer.wav
Peak level 97.6 %
Extraction speed 2.5 X
Track quality 100.0 %
Test CRC 4D85196D
Copy CRC 4D85196D
Accurately ripped (confidence 3) [DF1FC532] (AR v2)
Copy OK
Track 5
Filename C:\Zelou\EAC Rips\Angela Galuppo - Angela Galuppo (2013) [CD FLAC] {JUST 252-2}\05 - The Very Thought of You.wav
Peak level 97.6 %
Extraction speed 2.0 X
Track quality 99.9 %
Test CRC 957B96C3
Copy CRC 957B96C3
Accurately ripped (confidence 3) [5FFD207B] (AR v2)
Copy OK
Track 6
Filename C:\Zelou\EAC Rips\Angela Galuppo - Angela Galuppo (2013) [CD FLAC] {JUST 252-2}\06 - Thank You For Being A Friend.wav
Peak level 97.6 %
Extraction speed 2.8 X
Track quality 100.0 %
Test CRC 6D8DE246
Copy CRC 6D8DE246
Accurately ripped (confidence 3) [6AFA51F5] (AR v2)
Copy OK
Track 7
Filename C:\Zelou\EAC Rips\Angela Galuppo - Angela Galuppo (2013) [CD FLAC] {JUST 252-2}\07 - Eleanor Rigby.wav
Peak level 97.6 %
Extraction speed 3.0 X
Track quality 100.0 %
Test CRC 582A72AE
Copy CRC 582A72AE
Accurately ripped (confidence 3) [E58F4895] (AR v2)
Copy OK
Track 8
Filename C:\Zelou\EAC Rips\Angela Galuppo - Angela Galuppo (2013) [CD FLAC] {JUST 252-2}\08 - The Only One.wav
Peak level 97.6 %
Extraction speed 3.2 X
Track quality 100.0 %
Test CRC 11144AFE
Copy CRC 11144AFE
Accurately ripped (confidence 3) [8538EC1F] (AR v2)
Copy OK
Track 9
Filename C:\Zelou\EAC Rips\Angela Galuppo - Angela Galuppo (2013) [CD FLAC] {JUST 252-2}\09 - S'Wonderful.wav
Peak level 97.6 %
Extraction speed 3.1 X
Track quality 100.0 %
Test CRC ACBE17DE
Copy CRC ACBE17DE
Accurately ripped (confidence 3) [9ADED5CC] (AR v2)
Copy OK
Track 10
Filename C:\Zelou\EAC Rips\Angela Galuppo - Angela Galuppo (2013) [CD FLAC] {JUST 252-2}\10 - I Feel for You.wav
Peak level 97.6 %
Extraction speed 3.5 X
Track quality 100.0 %
Test CRC 911BB41B
Copy CRC 911BB41B
Accurately ripped (confidence 3) [49EF4045] (AR v2)
Copy OK
Track 11
Filename C:\Zelou\EAC Rips\Angela Galuppo - Angela Galuppo (2013) [CD FLAC] {JUST 252-2}\11 - Jesus Etc..wav
Peak level 97.6 %
Extraction speed 3.4 X
Track quality 100.0 %
Test CRC FDA89288
Copy CRC FDA89288
Accurately ripped (confidence 3) [FDEAF4FE] (AR v2)
Copy OK
Track 12
Filename C:\Zelou\EAC Rips\Angela Galuppo - Angela Galuppo (2013) [CD FLAC] {JUST 252-2}\12 - Make Someone Happy.wav
Peak level 97.6 %
Extraction speed 3.6 X
Track quality 100.0 %
Test CRC DF739DEF
Copy CRC DF739DEF
Accurately ripped (confidence 3) [DAD19225] (AR v2)
Copy OK
All tracks accurately ripped
No errors occurred
End of status report
---- CUETools DB Plugin V2.1.6
[CTDB TOCID: 7.l8jr.Q6PQMZZA5KALrWw_0GNE-] disk not present in database
Submit result: 7.l8jr.Q6PQMZZA5KALrWw_0GNE- has been uploaded
==== Log checksum 4BD583B75F454A0EC1B24E5CF0EFB03AD3BCAE6974BD87A63138B77A7BC3E482 ====
 
Содержание индексной карты (.CUE)
REM GENRE Jazz
REM DATE 2013
REM DISCID 9F0CEC0C
REM COMMENT "ExactAudioCopy v1.3"
CATALOG 0068944025220
PERFORMER "Angela Galuppo"
TITLE "Angela Galuppo"
FILE "01 - Tea for Two.wav" WAVE
TRACK 01 AUDIO
TITLE "Tea for Two"
PERFORMER "Angela Galuppo"
ISRC MaJ221325201
INDEX 01 00:00:00
FILE "02 - My One & Only Love.wav" WAVE
TRACK 02 AUDIO
TITLE "My One & Only Love"
PERFORMER "Angela Galuppo"
ISRC MaJ221325202
INDEX 01 00:00:00
FILE "03 - I Only Have Eyes for You.wav" WAVE
TRACK 03 AUDIO
TITLE "I Only Have Eyes for You"
PERFORMER "Angela Galuppo"
ISRC MaJ221325203
INDEX 01 00:00:00
FILE "04 - I Never Dreamed You'd Leave in Summer.wav" WAVE
TRACK 04 AUDIO
TITLE "I Never Dreamed You'd Leave in Summer"
PERFORMER "Angela Galuppo"
ISRC MaJ221325204
INDEX 01 00:00:00
FILE "05 - The Very Thought of You.wav" WAVE
TRACK 05 AUDIO
TITLE "The Very Thought of You"
PERFORMER "Angela Galuppo"
ISRC MaJ221325205
INDEX 01 00:00:00
FILE "06 - Thank You for Being a Friend.wav" WAVE
TRACK 06 AUDIO
TITLE "Thank You for Being a Friend"
PERFORMER "Angela Galuppo"
ISRC MaJ221325206
INDEX 01 00:00:00
FILE "07 - Eleanor Rigby.wav" WAVE
TRACK 07 AUDIO
TITLE "Eleanor Rigby"
PERFORMER "Angela Galuppo"
ISRC MaJ221325207
INDEX 01 00:00:00
FILE "08 - The Only One.wav" WAVE
TRACK 08 AUDIO
TITLE "The Only One"
PERFORMER "Angela Galuppo"
ISRC MaJ221325208
INDEX 01 00:00:00
FILE "09 - S'Wonderful.wav" WAVE
TRACK 09 AUDIO
TITLE "S'Wonderful"
PERFORMER "Angela Galuppo"
ISRC MaJ221325209
INDEX 01 00:00:00
FILE "10 - I Feel for You.wav" WAVE
TRACK 10 AUDIO
TITLE "I Feel for You"
PERFORMER "Angela Galuppo"
ISRC MaJ221325210
INDEX 01 00:00:00
FILE "11 - Jesus Etc..wav" WAVE
TRACK 11 AUDIO
TITLE "Jesus Etc."
PERFORMER "Angela Galuppo"
ISRC MaJ221325211
INDEX 01 00:00:00
FILE "12 - Make Someone Happy.wav" WAVE
TRACK 12 AUDIO
TITLE "Make Someone Happy"
PERFORMER "Angela Galuppo"
ISRC MaJ221325212
INDEX 01 00:00:00
 
Отчет CUETools
[CUETools log; Date: 28.02.2018 2:58:17; Version: 2.1.5]
[CTDB TOCID: 7.l8jr.Q6PQMZZA5KALrWw_0GNE-] found.
Track | CTDB Status
1 | (1/1) Accurately ripped
2 | (1/1) Accurately ripped
3 | (1/1) Accurately ripped
4 | (1/1) Accurately ripped
5 | (1/1) Accurately ripped
6 | (1/1) Accurately ripped
7 | (1/1) Accurately ripped
8 | (1/1) Accurately ripped
9 | (1/1) Accurately ripped
10 | (1/1) Accurately ripped
11 | (1/1) Accurately ripped
12 | (1/1) Accurately ripped
[AccurateRip ID: 0019180b-00e9efde-9f0cec0c] found.
Track [ CRC | V2 ] Status
01 [4fb8587e|f5d76dcb] (0+3/3) Accurately ripped
02 [c690ee5f|86f67f2b] (0+3/3) Accurately ripped
03 [955de517|55b9613b] (0+3/3) Accurately ripped
04 [07679550|df1fc532] (0+3/3) Accurately ripped
05 [491f7407|5ffd207b] (0+3/3) Accurately ripped
06 [4693132e|6afa51f5] (0+3/3) Accurately ripped
07 [be2d1a65|e58f4895] (0+3/3) Accurately ripped
08 [0216f201|8538ec1f] (0+3/3) Accurately ripped
09 [f139cbc0|9aded5cc] (0+3/3) Accurately ripped
10 [1860992d|49ef4045] (0+3/3) Accurately ripped
11 [d049529f|fdeaf4fe] (0+3/3) Accurately ripped
12 [81dd1a60|dad19225] (0+3/3) Accurately ripped
Track Peak [ CRC32 ] [W/O NULL] [ LOG ]
-- 97,6 [AA368F7F] [6E5D5B86]
01 97,6 [AC479F14] [064CC99A] CRC32
02 97,6 [DDA791EC] [198E6F7A] CRC32
03 97,6 [21F13BC7] [32D45701] CRC32
04 97,6 [4D85196D] [2611B0C3] CRC32
05 97,6 [957B96C3] [A8C70423] CRC32
06 97,6 [6D8DE246] [E2292EC8] CRC32
07 97,6 [582A72AE] [66CAEFF3] CRC32
08 97,6 [11144AFE] [D297EDA5] CRC32
09 97,6 [ACBE17DE] [ACADEF56] CRC32
10 97,6 [911BB41B] [B54A008D] CRC32
11 97,6 [FDA89288] [080CBA95] CRC32
12 97,6 [DF739DEF] [9D231857] CRC32
 
Об альбоме (сборнике)
Vocalist, songwriter (and actress) Angela Galuppo's debut recording under her own name (she also heads up Montreal pop/jazz ensemble St. Ange) is nothing short of sensational. What a voice! She makes each note count - drawing inspiration from her early idols, Ella Fitzgerald, Anita O'Day and Sarah Vaughn - but Galuppo's style and phrasing are entirely her own. Backed by a stellar band the recording is beautifully arranged "It's a jazz recording with tunes you wouldn't necessarily associate with jazz." Think Black Keys. Think Prince. "The album as a whole is moody, romantic, tender, intimate, lush and soothing," says Galuppo, "as an artist and a human being, I'm constantly evolving and changing, and learning about myself."
Welcome to the next chapter in the evolution of Angela Galuppo!!
Скачивание доступно после регистрации!!
Приватный:
Нет (DHT включён)
Размер:
310.22 Мб (325,284,025 байт) » файлов: 20
Участники:
0 раздают, 0 качают (0 участников всего)
Внешние участники:
5 раздают, 2 качают (7 участников всего) [ Обновить ]
06:47
8
Нет комментариев. Ваш будет первым!