Поиск

(Vocal Jazz) [CD] Karen Young & Michel Donato - Second Time Around - 1996, FLAC (tracks+.cue), lossless

(Vocal Jazz) [CD] Karen Young & Michel Donato - Second Time Around - 1996, FLAC (tracks+.cue), lossless
Треклист:
Karen Young & Michel Donato - Second Time Around
Жанр: Vocal Jazz
Носитель: CD
Страна-производитель диска (релиза): Канада
Год издания: 1996
Издатель (лейбл): Ursh
Номер по каталогу: URCD1994
Аудиокодек: FLAC (*.flac)
Тип рипа: tracks+.cue
Битрейт аудио: lossless
Продолжительность: 50:48
Источник (релизер): Zelou
Наличие сканов в содержимом раздачи: нет
Треклист:
01. The Second Time Around (3:04)
02. Peel Me a Grape (4:00)
03. Je bois (3:03)
04. One for My Baby (3:51)
05. Memphis Tennessee (2:15)
06. Little Niles (3:29)
07. Goodbye Porkpie Hat (4:39)
08. Parker's Mood (5:42)
09. Exits and Flags (3:45)
10. Up from the Skies (2:34)
11. Send in the Clowns (5:21)
12. You're My Thrill (5:13)
13. Sexual Healing (3:52)
Состав:
Karen Young - vocals
Michel Donato - double bass
 
Лог создания рипа
Exact Audio Copy V1.3 from 2. September 2016
EAC extraction logfile from 12. August 2017, 22:46
Karen Young & Michel Donato / Second Time Around
Used drive : ATAPI DVD A DH16AAL Adapter: 1 ID: 0
Read mode : Secure
Utilize accurate stream : Yes
Defeat audio cache : Yes
Make use of C2 pointers : No
Read offset correction : 6
Overread into Lead-In and Lead-Out : No
Fill up missing offset samples with silence : Yes
Delete leading and trailing silent blocks : No
Null samples used in CRC calculations : Yes
Used interface : Native Win32 interface for Win NT & 2000
Gap handling : Appended to previous track
Used output format : User Defined Encoder
Selected bitrate : 1024 kBit/s
Quality : High
Add ID3 tag : No
Command line compressor : C:\Program Files (x86)\Exact Audio Copy\Flac\flac.exe
Additional command line options : -8 -e -p -V -T "ARTIST=%artist%" -T "TITLE=%title%" -T "ALBUM=%albumtitle%" -T "DATE=%year%" -T "TRACKNUMBER=%tracknr%" -T "GENRE=%genre%" -T "PERFORMER=%albuminterpret%" -T "COMPOSER=%composer%" %haslyrics%--tag-from-file=LYRICS="%lyricsfile%"%haslyrics% -T "ALBUMARTIST=%albumartist%" -T "DISCNUMBER=%cdnumber%" -T "TOTALDISCS=%totalcds%" -T "TOTALTRACKS=%numtracks%" -T "COMMENT=%comment%" %source% -o %dest%
TOC of the extracted CD
Track | Start | Length | Start sector | End sector
---------------------------------------------------------
1 | 0:00.00 | 3:03.55 | 0 | 13779
2 | 3:03.55 | 3:59.45 | 13780 | 31749
3 | 7:03.25 | 3:02.65 | 31750 | 45464
4 | 10:06.15 | 3:50.52 | 45465 | 62766
5 | 13:56.67 | 2:14.73 | 62767 | 72889
6 | 16:11.65 | 3:29.02 | 72890 | 88566
7 | 19:40.67 | 4:38.68 | 88567 | 109484
8 | 24:19.60 | 5:42.20 | 109485 | 135154
9 | 30:02.05 | 3:44.45 | 135155 | 151999
10 | 33:46.50 | 2:33.55 | 152000 | 163529
11 | 36:20.30 | 5:21.22 | 163530 | 187626
12 | 41:41.52 | 5:13.10 | 187627 | 211111
13 | 46:54.62 | 3:51.70 | 211112 | 228506
Track 1
Filename C:\Zelou\EAC Rips\Karen Young & Michel Donato - Second Time Around (1996) [FLAC] {URCD-1994}\01 - The second time around.wav
Pre-gap length 0:00:02.00
Peak level 99.4 %
Extraction speed 1.6 X
Track quality 100.0 %
Test CRC 222F8439
Copy CRC 222F8439
Accurately ripped (confidence 4) [391F11BD] (AR v2)
Copy OK
Track 2
Filename C:\Zelou\EAC Rips\Karen Young & Michel Donato - Second Time Around (1996) [FLAC] {URCD-1994}\02 - Peel me a grape.wav
Pre-gap length 0:00:00.80
Peak level 99.4 %
Extraction speed 1.9 X
Track quality 100.0 %
Test CRC 636A97E4
Copy CRC 636A97E4
Accurately ripped (confidence 4) [71B1D4A6] (AR v2)
Copy OK
Track 3
Filename C:\Zelou\EAC Rips\Karen Young & Michel Donato - Second Time Around (1996) [FLAC] {URCD-1994}\03 - Je bois.wav
Pre-gap length 0:00:02.17
Peak level 100.0 %
Extraction speed 2.0 X
Track quality 100.0 %
Test CRC 45C0A3BC
Copy CRC 45C0A3BC
Accurately ripped (confidence 4) [29B67F61] (AR v2)
Copy OK
Track 4
Filename C:\Zelou\EAC Rips\Karen Young & Michel Donato - Second Time Around (1996) [FLAC] {URCD-1994}\04 - One for my baby.wav
Pre-gap length 0:00:00.57
Peak level 100.0 %
Extraction speed 2.2 X
Track quality 100.0 %
Test CRC 61D616D7
Copy CRC 61D616D7
Accurately ripped (confidence 4) [5D6F5FCB] (AR v2)
Copy OK
Track 5
Filename C:\Zelou\EAC Rips\Karen Young & Michel Donato - Second Time Around (1996) [FLAC] {URCD-1994}\05 - Memphis Tennessee.wav
Pre-gap length 0:00:02.26
Peak level 100.0 %
Extraction speed 2.1 X
Track quality 100.0 %
Test CRC 11179E0B
Copy CRC 11179E0B
Accurately ripped (confidence 4) [1C35A33E] (AR v2)
Copy OK
Track 6
Filename C:\Zelou\EAC Rips\Karen Young & Michel Donato - Second Time Around (1996) [FLAC] {URCD-1994}\06 - Little Niles.wav
Pre-gap length 0:00:02.26
Peak level 99.6 %
Extraction speed 2.4 X
Track quality 100.0 %
Test CRC 93D85A29
Copy CRC 93D85A29
Accurately ripped (confidence 4) [A36A873C] (AR v2)
Copy OK
Track 7
Filename C:\Zelou\EAC Rips\Karen Young & Michel Donato - Second Time Around (1996) [FLAC] {URCD-1994}\07 - Goodbye Porkpie Hat.wav
Pre-gap length 0:00:01.96
Peak level 99.5 %
Extraction speed 2.7 X
Track quality 100.0 %
Test CRC ACB84212
Copy CRC ACB84212
Accurately ripped (confidence 4) [13AE3CC3] (AR v2)
Copy OK
Track 8
Filename C:\Zelou\EAC Rips\Karen Young & Michel Donato - Second Time Around (1996) [FLAC] {URCD-1994}\08 - Parker's mood.wav
Pre-gap length 0:00:00.60
Peak level 99.1 %
Extraction speed 2.3 X
Track quality 99.9 %
Test CRC 76803D78
Copy CRC 76803D78
Accurately ripped (confidence 4) [4EF47FD3] (AR v2)
Copy OK
Track 9
Filename C:\Zelou\EAC Rips\Karen Young & Michel Donato - Second Time Around (1996) [FLAC] {URCD-1994}\09 - Exits and flags.wav
Pre-gap length 0:00:02.10
Peak level 99.9 %
Extraction speed 2.9 X
Track quality 100.0 %
Test CRC 77D30B51
Copy CRC 77D30B51
Accurately ripped (confidence 4) [9E6526FF] (AR v2)
Copy OK
Track 10
Filename C:\Zelou\EAC Rips\Karen Young & Michel Donato - Second Time Around (1996) [FLAC] {URCD-1994}\10 - Up from the skies.wav
Pre-gap length 0:00:01.57
Peak level 100.0 %
Extraction speed 2.8 X
Track quality 100.0 %
Test CRC D38578D7
Copy CRC D38578D7
Accurately ripped (confidence 4) [B632F849] (AR v2)
Copy OK
Track 11
Filename C:\Zelou\EAC Rips\Karen Young & Michel Donato - Second Time Around (1996) [FLAC] {URCD-1994}\11 - Send in the clowns.wav
Pre-gap length 0:00:02.50
Peak level 99.1 %
Extraction speed 3.2 X
Track quality 100.0 %
Test CRC DB1CF2C4
Copy CRC DB1CF2C4
Accurately ripped (confidence 4) [49C0EEE7] (AR v2)
Copy OK
Track 12
Filename C:\Zelou\EAC Rips\Karen Young & Michel Donato - Second Time Around (1996) [FLAC] {URCD-1994}\12 - You're my thrill.wav
Pre-gap length 0:00:02.00
Peak level 100.0 %
Extraction speed 3.4 X
Track quality 100.0 %
Test CRC AE50F652
Copy CRC AE50F652
Accurately ripped (confidence 3) [37646FF0] (AR v2)
Copy OK
Track 13
Filename C:\Zelou\EAC Rips\Karen Young & Michel Donato - Second Time Around (1996) [FLAC] {URCD-1994}\13 - Sexual healing.wav
Pre-gap length 0:00:02.02
Peak level 99.4 %
Extraction speed 3.4 X
Track quality 100.0 %
Test CRC 0EB47A4B
Copy CRC 0EB47A4B
Accurately ripped (confidence 4) [4EF7082A] (AR v2)
Copy OK
All tracks accurately ripped
No errors occurred
End of status report
---- CUETools DB Plugin V2.1.6
[CTDB TOCID: Kohn0aJS3A1B7VHkQkGsij3niXk-] found
Submit result: Kohn0aJS3A1B7VHkQkGsij3niXk- has been uploaded
Track | CTDB Status
1 | (1/1) Accurately ripped
2 | (1/1) Accurately ripped
3 | (1/1) Accurately ripped
4 | (1/1) Accurately ripped
5 | (1/1) Accurately ripped
6 | (1/1) Accurately ripped
7 | (1/1) Accurately ripped
8 | (1/1) Accurately ripped
9 | (1/1) Accurately ripped
10 | (1/1) Accurately ripped
11 | (1/1) Accurately ripped
12 | (1/1) Differs in 6 samples @04:53:25,04:54:02,04:55:64
13 | (1/1) Accurately ripped
If you are sure that your rip contains errors, you can use CUETools to repair it.
==== Log checksum B6284FEB8ABF692EF4ACBD7946682F560425E4B800D4DD26EBD975A2E8FA7427 ====
 
Содержание индексной карты (.CUE)
REM GENRE Jazz
REM DATE 1996
REM DISCID A80BE60D
REM COMMENT "ExactAudioCopy v1.3"
PERFORMER "Karen Young & Michel Donato"
TITLE "Second Time Around"
FILE "01 - The Second Time Around.wav" WAVE
TRACK 01 AUDIO
TITLE "The Second Time Around"
PERFORMER "Karen Young & Michel Donato"
INDEX 01 00:00:00
TRACK 02 AUDIO
TITLE "Peel Me a Grape"
PERFORMER "Karen Young & Michel Donato"
INDEX 00 03:02:70
FILE "02 - Peel Me a Grape.wav" WAVE
INDEX 01 00:00:00
TRACK 03 AUDIO
TITLE "Je bois"
PERFORMER "Karen Young & Michel Donato"
INDEX 00 03:57:32
FILE "03 - Je bois.wav" WAVE
INDEX 01 00:00:00
TRACK 04 AUDIO
TITLE "One for My Baby"
PERFORMER "Karen Young & Michel Donato"
INDEX 00 03:02:22
FILE "04 - One for My Baby.wav" WAVE
INDEX 01 00:00:00
TRACK 05 AUDIO
TITLE "Memphis Tennessee"
PERFORMER "Karen Young & Michel Donato"
INDEX 00 03:48:32
FILE "05 - Memphis Tennessee.wav" WAVE
INDEX 01 00:00:00
TRACK 06 AUDIO
TITLE "Little Niles"
PERFORMER "Karen Young & Michel Donato"
INDEX 00 02:12:53
FILE "06 - Little Niles.wav" WAVE
INDEX 01 00:00:00
TRACK 07 AUDIO
TITLE "Goodbye Porkpie Hat"
PERFORMER "Karen Young & Michel Donato"
INDEX 00 03:27:05
FILE "07 - Goodbye Porkpie Hat.wav" WAVE
INDEX 01 00:00:00
TRACK 08 AUDIO
TITLE "Parker's Mood"
PERFORMER "Karen Young & Michel Donato"
INDEX 00 04:38:23
FILE "08 - Parker's Mood.wav" WAVE
INDEX 01 00:00:00
TRACK 09 AUDIO
TITLE "Exits and Flags"
PERFORMER "Karen Young & Michel Donato"
INDEX 00 05:40:12
FILE "09 - Exits and Flags.wav" WAVE
INDEX 01 00:00:00
TRACK 10 AUDIO
TITLE "Up from the Skies"
PERFORMER "Karen Young & Michel Donato"
INDEX 00 03:43:02
FILE "10 - Up from the Skies.wav" WAVE
INDEX 01 00:00:00
TRACK 11 AUDIO
TITLE "Send in the Clowns"
PERFORMER "Karen Young & Michel Donato"
INDEX 00 02:31:17
FILE "11 - Send in the Clowns.wav" WAVE
INDEX 01 00:00:00
TRACK 12 AUDIO
TITLE "You're My Thrill"
PERFORMER "Karen Young & Michel Donato"
INDEX 00 05:19:22
FILE "12 - You're My Thrill.wav" WAVE
INDEX 01 00:00:00
TRACK 13 AUDIO
TITLE "Sexual Healing"
PERFORMER "Karen Young & Michel Donato"
INDEX 00 05:11:08
FILE "13 - Sexual Healing.wav" WAVE
INDEX 01 00:00:00
 
Отчет CUETools
[CUETools log; Date: 01.03.2018 1:32:58; Version: 2.1.5]
[CTDB TOCID: Kohn0aJS3A1B7VHkQkGsij3niXk-] found.
Track | CTDB Status
1 | (4/4) Accurately ripped
2 | (4/4) Accurately ripped
3 | (4/4) Accurately ripped
4 | (4/4) Accurately ripped
5 | (4/4) Accurately ripped
6 | (4/4) Accurately ripped
7 | (4/4) Accurately ripped
8 | (4/4) Accurately ripped
9 | (4/4) Accurately ripped
10 | (4/4) Accurately ripped
11 | (4/4) Accurately ripped
12 | (3/4) Accurately ripped
13 | (4/4) Accurately ripped
[AccurateRip ID: 0016edab-00e92f4e-a80be60d] found.
Track [ CRC | V2 ] Status
01 [ea82dbe7|391f11bd] (07+04/11) Accurately ripped
02 [f79075f6|71b1d4a6] (07+04/11) Accurately ripped
03 [2ae0ba4a|29b67f61] (07+04/11) Accurately ripped
04 [e524ddaa|5d6f5fcb] (07+04/11) Accurately ripped
05 [7b6a812a|1c35a33e] (07+04/11) Accurately ripped
06 [24e9c4f1|a36a873c] (07+04/11) Accurately ripped
07 [cea5e6d8|13ae3cc3] (07+04/11) Accurately ripped
08 [0e973cc9|4ef47fd3] (07+04/11) Accurately ripped
09 [f05b7097|9e6526ff] (07+04/11) Accurately ripped
10 [6b35051a|b632f849] (07+04/11) Accurately ripped
11 [e08b64c7|49c0eee7] (07+04/11) Accurately ripped
12 [388d9698|37646ff0] (07+03/10) Accurately ripped
13 [c7d1db9c|4ef7082a] (07+04/11) Accurately ripped
Track Peak [ CRC32 ] [W/O NULL] [ LOG ]
-- 100,0 [141C9691] [490EEF7C]
01 99,4 [222F8439] [6EAA9030] CRC32
02 99,4 [636A97E4] [46D3092F] CRC32
03 100,0 [45C0A3BC] [CBE57A29] CRC32
04 100,0 [61D616D7] [8E335B7E] CRC32
05 100,0 [11179E0B] [762BFCC9] CRC32
06 99,6 [93D85A29] [E6FBA853] CRC32
07 99,5 [ACB84212] [0EF2A143] CRC32
08 99,1 [76803D78] [D3FB4430] CRC32
09 99,9 [77D30B51] [D9A3744A] CRC32
10 100,0 [D38578D7] [32554858] CRC32
11 99,1 [DB1CF2C4] [C190FB3B] CRC32
12 100,0 [AE50F652] [1A614569] CRC32
13 99,4 [0EB47A4B] [7D98189F] CRC32
Скачивание доступно после регистрации!!
Приватный:
Нет (DHT включён)
Размер:
241.53 Мб (253,263,923 байт) » файлов: 20
Участники:
0 раздают, 0 качают (0 участников всего)
Внешние участники:
2 раздают, 1 качают (3 участников всего) [ Обновить ]
06:51
12
Нет комментариев. Ваш будет первым!