Поиск

(Vocal Jazz) [CD] Karen Young - Karen Young - 1992, FLAC (tracks+.cue), lossless

(Vocal Jazz) [CD] Karen Young - Karen Young - 1992, FLAC (tracks+.cue), lossless
Треклист:
Karen Young - Karen Young
Жанр: Vocal Jazz
Носитель: CD
Страна-производитель диска (релиза): Канада
Год издания: 1992
Издатель (лейбл): Ursh
Номер по каталогу: URCD1992
Аудиокодек: FLAC (*.flac)
Тип рипа: tracks+.cue
Битрейт аудио: lossless
Продолжительность: 54:45
Источник (релизер): Zelou
Наличие сканов в содержимом раздачи: нет
Треклист:
01. Chaude etait la nuit (3:03)
02. Family Fight (4:29)
03. Alone (3:44)
04. I Just Wanna Be with You (3:55)
05. Pilgrimage to the Sun (4:03)
06. On m'a oublie (3:28)
07. Return (4:21)
08. Requiem (2:51)
09. War (4:07)
10. Illusion of Forever (5:00)
11. Quicksand (3:16)
12. Freedom (4:40)
13. Lucky Lucky (4:11)
14. It Is Political (3:37)
 
Лог создания рипа
Exact Audio Copy V1.3 from 2. September 2016
EAC extraction logfile from 12. August 2017, 17:27
Karen Young / Karen Young
Used drive : ATAPI DVD A DH16AAL Adapter: 1 ID: 0
Read mode : Secure
Utilize accurate stream : Yes
Defeat audio cache : Yes
Make use of C2 pointers : No
Read offset correction : 6
Overread into Lead-In and Lead-Out : No
Fill up missing offset samples with silence : Yes
Delete leading and trailing silent blocks : No
Null samples used in CRC calculations : Yes
Used interface : Native Win32 interface for Win NT & 2000
Gap handling : Appended to previous track
Used output format : User Defined Encoder
Selected bitrate : 1024 kBit/s
Quality : High
Add ID3 tag : No
Command line compressor : C:\Program Files (x86)\Exact Audio Copy\Flac\flac.exe
Additional command line options : -8 -e -p -V -T "ARTIST=%artist%" -T "TITLE=%title%" -T "ALBUM=%albumtitle%" -T "DATE=%year%" -T "TRACKNUMBER=%tracknr%" -T "GENRE=%genre%" -T "PERFORMER=%albuminterpret%" -T "COMPOSER=%composer%" %haslyrics%--tag-from-file=LYRICS="%lyricsfile%"%haslyrics% -T "ALBUMARTIST=%albumartist%" -T "DISCNUMBER=%cdnumber%" -T "TOTALDISCS=%totalcds%" -T "TOTALTRACKS=%numtracks%" -T "COMMENT=%comment%" %source% -o %dest%
TOC of the extracted CD
Track | Start | Length | Start sector | End sector
---------------------------------------------------------
1 | 0:00.33 | 3:03.32 | 33 | 13789
2 | 3:03.65 | 4:29.00 | 13790 | 33964
3 | 7:32.65 | 3:44.25 | 33965 | 50789
4 | 11:17.15 | 3:54.73 | 50790 | 68412
5 | 15:12.13 | 4:02.57 | 68413 | 86619
6 | 19:14.70 | 3:28.03 | 86620 | 102222
7 | 22:42.73 | 4:20.72 | 102223 | 121794
8 | 27:03.70 | 2:51.35 | 121795 | 134654
9 | 29:55.30 | 4:07.15 | 134655 | 153194
10 | 34:02.45 | 5:00.05 | 153195 | 175699
11 | 39:02.50 | 3:15.38 | 175700 | 190362
12 | 42:18.13 | 4:39.40 | 190363 | 211327
13 | 46:57.53 | 4:10.50 | 211328 | 230127
14 | 51:08.28 | 3:36.47 | 230128 | 246374
Track 1
Filename C:\Zelou\EAC Rips\Karen Young - Karen Young (1991) [FLAC] {URCD-1992}\01 - Chaude était la nuit.wav
Pre-gap length 0:00:02.44
Peak level 100.0 %
Extraction speed 1.7 X
Track quality 100.0 %
Test CRC 914B1BE7
Copy CRC 914B1BE7
Accurately ripped (confidence 2) [C7D48171] (AR v2)
Copy OK
Track 2
Filename C:\Zelou\EAC Rips\Karen Young - Karen Young (1991) [FLAC] {URCD-1992}\02 - Family fight.wav
Pre-gap length 0:00:04.16
Peak level 100.0 %
Extraction speed 2.0 X
Track quality 100.0 %
Test CRC 9A80D25F
Copy CRC 9A80D25F
Accurately ripped (confidence 2) [9B474250] (AR v2)
Copy OK
Track 3
Filename C:\Zelou\EAC Rips\Karen Young - Karen Young (1991) [FLAC] {URCD-1992}\03 - Alone.wav
Pre-gap length 0:00:00.93
Peak level 98.3 %
Extraction speed 2.1 X
Track quality 100.0 %
Test CRC F0FAB10F
Copy CRC F0FAB10F
Accurately ripped (confidence 2) [9A41EBC8] (AR v2)
Copy OK
Track 4
Filename C:\Zelou\EAC Rips\Karen Young - Karen Young (1991) [FLAC] {URCD-1992}\04 - I just wanna be with you.wav
Pre-gap length 0:00:05.29
Peak level 100.0 %
Extraction speed 2.3 X
Track quality 100.0 %
Test CRC 0860005B
Copy CRC 0860005B
Accurately ripped (confidence 2) [5F51BE9A] (AR v2)
Copy OK
Track 5
Filename C:\Zelou\EAC Rips\Karen Young - Karen Young (1991) [FLAC] {URCD-1992}\05 - Pilgrimage to the sun.wav
Pre-gap length 0:00:04.10
Peak level 96.8 %
Extraction speed 2.4 X
Track quality 100.0 %
Test CRC D86F8F02
Copy CRC D86F8F02
Accurately ripped (confidence 2) [FA3582BC] (AR v2)
Copy OK
Track 6
Filename C:\Zelou\EAC Rips\Karen Young - Karen Young (1991) [FLAC] {URCD-1992}\06 - On m'a oublié.wav
Pre-gap length 0:00:05.02
Peak level 100.0 %
Extraction speed 2.5 X
Track quality 100.0 %
Test CRC 163F2ABF
Copy CRC 163F2ABF
Accurately ripped (confidence 2) [CA0252B9] (AR v2)
Copy OK
Track 7
Filename C:\Zelou\EAC Rips\Karen Young - Karen Young (1991) [FLAC] {URCD-1992}\07 - Return.wav
Pre-gap length 0:00:05.53
Peak level 100.0 %
Extraction speed 2.0 X
Track quality 99.9 %
Test CRC 8B318C6D
Copy CRC 8B318C6D
Accurately ripped (confidence 2) [7AE93BDA] (AR v2)
Copy OK
Track 8
Filename C:\Zelou\EAC Rips\Karen Young - Karen Young (1991) [FLAC] {URCD-1992}\08 - Requiem.wav
Pre-gap length 0:00:02.13
Peak level 100.0 %
Extraction speed 2.7 X
Track quality 100.0 %
Test CRC F8126205
Copy CRC F8126205
Accurately ripped (confidence 2) [4A8E58BE] (AR v2)
Copy OK
Track 9
Filename C:\Zelou\EAC Rips\Karen Young - Karen Young (1991) [FLAC] {URCD-1992}\09 - War.wav
Peak level 96.1 %
Extraction speed 2.9 X
Track quality 100.0 %
Test CRC 39FC959E
Copy CRC 39FC959E
Accurately ripped (confidence 2) [21906D9E] (AR v2)
Copy OK
Track 10
Filename C:\Zelou\EAC Rips\Karen Young - Karen Young (1991) [FLAC] {URCD-1992}\10 - Illusion of forever.wav
Pre-gap length 0:00:02.82
Peak level 97.1 %
Extraction speed 3.1 X
Track quality 100.0 %
Test CRC 2FEA8C58
Copy CRC 2FEA8C58
Accurately ripped (confidence 2) [A130868D] (AR v2)
Copy OK
Track 11
Filename C:\Zelou\EAC Rips\Karen Young - Karen Young (1991) [FLAC] {URCD-1992}\11 - Quicksand.wav
Pre-gap length 0:00:04.20
Peak level 95.2 %
Extraction speed 1.9 X
Track quality 99.9 %
Test CRC D3AC3387
Copy CRC D3AC3387
Accurately ripped (confidence 2) [9C181DC1] (AR v2)
Copy OK
Track 12
Filename C:\Zelou\EAC Rips\Karen Young - Karen Young (1991) [FLAC] {URCD-1992}\12 - Freedom.wav
Pre-gap length 0:00:04.86
Peak level 99.2 %
Extraction speed 2.3 X
Track quality 99.9 %
Test CRC 93F301D5
Copy CRC 93F301D5
Accurately ripped (confidence 2) [F768B141] (AR v2)
Copy OK
Track 13
Filename C:\Zelou\EAC Rips\Karen Young - Karen Young (1991) [FLAC] {URCD-1992}\13 - Lucky lucky.wav
Pre-gap length 0:00:05.80
Peak level 76.7 %
Extraction speed 2.5 X
Track quality 99.9 %
Test CRC 63C2549B
Copy CRC 63C2549B
Accurately ripped (confidence 2) [3C4615A9] (AR v2)
Copy OK
Track 14
Filename C:\Zelou\EAC Rips\Karen Young - Karen Young (1991) [FLAC] {URCD-1992}\14 - It is political.wav
Pre-gap length 0:00:04.33
Peak level 97.4 %
Extraction speed 3.5 X
Track quality 100.0 %
Test CRC 0AC19CEA
Copy CRC 0AC19CEA
Accurately ripped (confidence 2) [D4CA21CD] (AR v2)
Copy OK
All tracks accurately ripped
No errors occurred
End of status report
---- CUETools DB Plugin V2.1.6
[CTDB TOCID: qBe7ziJgYzm2n4Vie8ES4xEXNIM-] found
Submit result: qBe7ziJgYzm2n4Vie8ES4xEXNIM- has been confirmed
Track | CTDB Status
1 | (2/2) Accurately ripped
2 | (2/2) Accurately ripped
3 | (2/2) Accurately ripped
4 | (2/2) Accurately ripped
5 | (2/2) Accurately ripped
6 | (2/2) Accurately ripped
7 | (2/2) Accurately ripped
8 | (2/2) Accurately ripped
9 | (2/2) Accurately ripped
10 | (2/2) Accurately ripped
11 | (2/2) Accurately ripped
12 | (2/2) Accurately ripped
13 | (2/2) Accurately ripped
14 | (2/2) Accurately ripped
==== Log checksum EA50EA43284C6649A97C44C75B2FC2FD0C26E9BB683FC7804DBCCE0EF8E26A83 ====
 
Содержание индексной карты (.CUE)
REM GENRE Jazz
REM DATE 1992
REM DISCID C20CD50E
REM COMMENT "ExactAudioCopy v1.3"
PERFORMER "Karen Young"
TITLE "Karen Young"
FILE "01 - Chaude etait la nuit.wav" WAVE
TRACK 01 AUDIO
TITLE "Chaude etait la nuit"
PERFORMER "Karen Young"
PREGAP 00:00:33
INDEX 01 00:00:00
TRACK 02 AUDIO
TITLE "Family Fight"
PERFORMER "Karen Young"
INDEX 00 02:59:20
FILE "02 - Family Fight.wav" WAVE
INDEX 01 00:00:00
TRACK 03 AUDIO
TITLE "Alone"
PERFORMER "Karen Young"
INDEX 00 04:28:05
FILE "03 - Alone.wav" WAVE
INDEX 01 00:00:00
TRACK 04 AUDIO
TITLE "I Just Wanna Be with You"
PERFORMER "Karen Young"
INDEX 00 03:39:03
FILE "04 - I Just Wanna Be with You.wav" WAVE
INDEX 01 00:00:00
TRACK 05 AUDIO
TITLE "Pilgrimage to the Sun"
PERFORMER "Karen Young"
INDEX 00 03:50:65
FILE "05 - Pilgrimage to the Sun.wav" WAVE
INDEX 01 00:00:00
TRACK 06 AUDIO
TITLE "On m'a oublie"
PERFORMER "Karen Young"
INDEX 00 03:57:55
FILE "06 - On m'a oublie.wav" WAVE
INDEX 01 00:00:00
TRACK 07 AUDIO
TITLE "Return"
PERFORMER "Karen Young"
INDEX 00 03:22:38
FILE "07 - Return.wav" WAVE
INDEX 01 00:00:00
TRACK 08 AUDIO
TITLE "Requiem"
PERFORMER "Karen Young"
INDEX 00 04:18:62
FILE "08 - Requiem.wav" WAVE
INDEX 01 00:00:00
FILE "09 - War.wav" WAVE
TRACK 09 AUDIO
TITLE "War"
PERFORMER "Karen Young"
INDEX 01 00:00:00
TRACK 10 AUDIO
TITLE "Illusion of Forever"
PERFORMER "Karen Young"
INDEX 00 04:04:28
FILE "10 - Illusion of Forever.wav" WAVE
INDEX 01 00:00:00
TRACK 11 AUDIO
TITLE "Quicksand"
PERFORMER "Karen Young"
INDEX 00 04:55:65
FILE "11 - Quicksand.wav" WAVE
INDEX 01 00:00:00
TRACK 12 AUDIO
TITLE "Freedom"
PERFORMER "Karen Young"
INDEX 00 03:10:48
FILE "12 - Freedom.wav" WAVE
INDEX 01 00:00:00
TRACK 13 AUDIO
TITLE "Lucky Lucky"
PERFORMER "Karen Young"
INDEX 00 04:33:55
FILE "13 - Lucky Lucky.wav" WAVE
INDEX 01 00:00:00
TRACK 14 AUDIO
TITLE "It Is Political"
PERFORMER "Karen Young"
INDEX 00 04:06:25
FILE "14 - It Is Political.wav" WAVE
INDEX 01 00:00:00
 
Отчет CUETools
[CUETools log; Date: 01.03.2018 1:49:44; Version: 2.1.5]
Pregap length 00:00:33.
[CTDB TOCID: qBe7ziJgYzm2n4Vie8ES4xEXNIM-] found.
Track | CTDB Status
1 | (3/3) Accurately ripped
2 | (3/3) Accurately ripped
3 | (3/3) Accurately ripped
4 | (3/3) Accurately ripped
5 | (3/3) Accurately ripped
6 | (3/3) Accurately ripped
7 | (3/3) Accurately ripped
8 | (3/3) Accurately ripped
9 | (3/3) Accurately ripped
10 | (3/3) Accurately ripped
11 | (3/3) Accurately ripped
12 | (3/3) Accurately ripped
13 | (3/3) Accurately ripped
14 | (3/3) Accurately ripped
[AccurateRip ID: 001bc2ed-0129b2c4-c20cd50e] found.
Track [ CRC | V2 ] Status
01 [ede2f1ef|c7d48171] (2+2/4) Accurately ripped
02 [ab6e9b5c|9b474250] (2+2/4) Accurately ripped
03 [d5ffd438|9a41ebc8] (2+2/4) Accurately ripped
04 [a8c9438d|5f51be9a] (2+2/4) Accurately ripped
05 [645eda51|fa3582bc] (2+2/4) Accurately ripped
06 [d2713d24|ca0252b9] (2+2/4) Accurately ripped
07 [c4f92add|7ae93bda] (2+2/4) Accurately ripped
08 [3a65c506|4a8e58be] (2+2/4) Accurately ripped
09 [eec5253b|21906d9e] (2+2/4) Accurately ripped
10 [8f351260|a130868d] (2+2/4) Accurately ripped
11 [3ec24fd6|9c181dc1] (2+2/4) Accurately ripped
12 [764f5832|f768b141] (2+2/4) Accurately ripped
13 [68bdf8cb|3c4615a9] (2+2/4) Accurately ripped
14 [fb307dab|d4ca21cd] (2+2/4) Accurately ripped
Track Peak [ CRC32 ] [W/O NULL] [ LOG ]
-- 100,0 [40C00587] [E856C774]
01 100,0 [914B1BE7] [864B8BC3] CRC32
02 100,0 [9A80D25F] [BC797282] CRC32
03 98,3 [F0FAB10F] [089AF402] CRC32
04 100,0 [0860005B] [F2B93271] CRC32
05 96,8 [D86F8F02] [CF1F61F7] CRC32
06 100,0 [163F2ABF] [B319C2F8] CRC32
07 100,0 [8B318C6D] [A0328CE5] CRC32
08 100,0 [F8126205] [771146AE] CRC32
09 96,1 [39FC959E] [60AD2921] CRC32
10 97,1 [2FEA8C58] [E4A57EC7] CRC32
11 95,2 [D3AC3387] [A47C5276] CRC32
12 99,2 [93F301D5] [0B0FE409] CRC32
13 76,7 [63C2549B] [13B7804A] CRC32
14 97,4 [0AC19CEA] [5316C38A] CRC32
Приватный:
Нет (DHT включён)
Размер:
341.27 Мб (357,845,159 байт) » файлов: 20
Участники:
0 раздают, 0 качают (0 участников всего)
Внешние участники:
3 раздают, 1 качают (4 участников всего) [ Обновить ]
06:52
7
Нет комментариев. Ваш будет первым!