Поиск

(Contemporary Jazz) [CD] Susanne Abbuehl - Ida Lupino - 2002, FLAC (image+.cue), lossless

(Contemporary Jazz) [CD] Susanne Abbuehl - Ida Lupino - 2002, FLAC (image+.cue), lossless
Треклист:
Susanne Abbuehl / Ida Lupino
Жанр: Contemporary Jazz
Носитель: CD
Страна-производитель диска (релиза): Netherlands
Год издания: 2002
Издатель (лейбл): Radio Nederland
Номер по каталогу: RN 29
Страна исполнителя (группы): Netherlands
Аудиокодек: FLAC (*.flac)
Тип рипа: image+.cue
Битрейт аудио: lossless
Продолжительность: 00:53:01
Источник (релизер): Jahrastafara
Наличие сканов в содержимом раздачи: да
Треклист:
1 A.I.R. 8:15
2 Since Feeling Is First 1:44
3 Ida Lupino 5:56
4 Vashkar 4:06
5 Mane Na 5:43
6 Sing Me Softly Of The Blues 5:37
7 As You July Me 4:14
8 Tarana 3:34
9 Skies May Be Blue;Yes 7:14
10 Maggie And Milly And Molly And May 6:41
 
Лог создания рипа
Exact Audio Copy V1.1 from 23. June 2015
Отчёт EAC об извлечении, выполненном 10. февраля 2018, 0:09
Susanne Abbuehl / Ida Lupino
Дисковод: HL-DT-STDVDRAM GP30NB40 Adapter: 1 ID: 0
Режим чтения : Достоверность
Использование точного потока : Да
Отключение кэша аудио : Да
Использование указателей C2 : Нет
Коррекция смещения при чтении : 6
Способность читать области Lead-in и Lead-out : Нет
Заполнение пропущенных сэмплов тишиной : Да
Удаление блоков с тишиной в начале и конце : Нет
При вычислениях CRC использовались нулевые сэмплы : Да
Интерфейс : Встроенный Win32-интерфейс для Win NT/2000
Выходной формат : Пользовательский кодировщик
Выбранный битрейт : 768 kBit/s
Качество : Высокий
Добавление ID3-тега : Нет
Утилита сжатия : C:\Program Files (x86)\Exact Audio Copy\FLAC\FLAC.EXE
Дополнительные параметры : -6 -V -T "ARTIST=%artist%" -T "TITLE=%title%" -T "ALBUM=%albumtitle%" -T "DATE=%year%" -T "TRACKNUMBER=%tracknr%" -T "GENRE=%genre%" -T "COMMENT=%comment%" -T "BAND=%albuminterpret%" -T "ALBUMARTIST=%albuminterpret%" -T "COMPOSER=%composer%" %haslyrics%--tag-from-file=LYRICS="%lyricsfile%"%haslyrics% -T "DISCNUMBER=%cdnumber%" -T "TOTALDISCS=%totalcds%" -T "TOTALTRACKS=%numtracks%" %hascover%--picture="%coverfile%"%hascover% %source% -o %dest%
TOC извлечённого CD
Трек | Старт | Длительность | Начальный сектор | Конечный сектор
---------------------------------------------------------------------
1 | 0:00.00 | 8:15.50 | 0 | 37174
2 | 8:15.50 | 1:41.12 | 37175 | 44761
3 | 9:56.62 | 5:58.18 | 44762 | 71629
4 | 15:55.05 | 4:03.67 | 71630 | 89921
5 | 19:58.72 | 5:45.15 | 89922 | 115811
6 | 25:44.12 | 5:33.68 | 115812 | 140854
7 | 31:18.05 | 4:13.55 | 140855 | 159884
8 | 35:31.60 | 3:35.35 | 159885 | 176044
9 | 39:07.20 | 7:17.12 | 176045 | 208831
10 | 46:24.32 | 6:36.30 | 208832 | 238561
Характеристики диапазона извлечения и сообщения об ошибках
Выбранный диапазон
Имя файла D:\CONVERSION\Susanne Abbuehl - Ida Lupino.wav
Пиковый уровень 99.9 %
Скорость извлечения 4.4 X
Качество диапазона 100.0 %
CRC копии 3CC44118
Копирование... OK
Ошибок не произошло
AccurateRip: сводка
Трек 1 отсутствует в базе данных
Трек 2 отсутствует в базе данных
Трек 3 отсутствует в базе данных
Трек 4 отсутствует в базе данных
Трек 5 отсутствует в базе данных
Трек 6 отсутствует в базе данных
Трек 7 отсутствует в базе данных
Трек 8 отсутствует в базе данных
Трек 9 отсутствует в базе данных
Трек 10 отсутствует в базе данных
Ни одного трека нет в базе AccurateRip
Конец отчёта
---- CUETools DB Plugin V2.1.6
[CTDB TOCID: s9CbSvqO9UNE9n9r1S3JgEeO.3U-] disk not present in database
Submit result: s9CbSvqO9UNE9n9r1S3JgEeO.3U- has been uploaded
==== Контрольная сумма отчёта 24D6DA64ACD6BEC18D43775D37134ABC3973B6C366A53C713B51C57D7F708C84 ====
Скачивание доступно после регистрации!!
Приватный:
Нет (DHT включён)
Размер:
308.80 Мб (323,800,699 байт) » файлов: 14
Участники:
0 раздают, 0 качают (0 участников всего)
Внешние участники:
3 раздают, 1 качают (4 участников всего) [ Обновить ]
06:52
17
Нет комментариев. Ваш будет первым!