Поиск

(Vocal Jazz) [CD] Bo Sundstrom - Mitt dumma jag: Svensk jazz - 2018, FLAC (tracks+.cue), lossless

(Vocal Jazz) [CD] Bo Sundstrom - Mitt dumma jag: Svensk jazz - 2018, FLAC (tracks+.cue), lossless
Треклист:
Bo Sundstrom - Mitt dumma jag: Svensk jazz
Жанр: Vocal Jazz
Носитель: CD
Страна-производитель диска (релиза): Швеция
Год издания: 2018
Издатель (лейбл): Columbia/Sony
Номер по каталогу: 19075806602
Аудиокодек: FLAC (*.flac)
Тип рипа: tracks+.cue
Битрейт аудио: lossless
Продолжительность: 39:16
Источник (релизер): jazzambazzador
Наличие сканов в содержимом раздачи: нет
Треклист:
01. Forsvann du (4:00)
02. Kommer du till mig inatt (2:36)
03. Sommaren vi alskade varann (4:07)
04. Allt ar som forut (4:20)
05. Mitt dumma jag (5:15)
06. Monicas vals (3:44)
07. Vad fort det gick (4:03)
08. Vad vet du om karlek (4:09)
09. Onska dig en annan man (3:07)
10. Danny's Dream (3:55)
Состав:
Bo Sundstrom - vocals
Robert Ostlund - guitar
Vladan Wirant - piano
Ulf Engstrom - bass
Daniel Fredriksson - drums
Bjorn Jansson - saxophone, clarinet
Jonne Bentlov - trumpet
 
Лог создания рипа
X Lossless Decoder version 20160920 (149.2)
XLD extraction logfile from 2018-04-16 15:52:30 +0200
Bo Sundström / Mitt Dumma Jag
Used drive : HL-DT-ST DVDRW GX40N (revision RQ00)
Media type : Pressed CD
Ripper mode : XLD Secure Ripper
Disable audio cache : OK for the drive with a cache less than 1375KiB
Make use of C2 pointers : NO
Read offset correction : 6
Max retry count : 20
Gap status : Analyzed, Appended (except HTOA)
TOC of the extracted CD
Track | Start | Length | Start sector | End sector
---------------------------------------------------------
1 | 00:00:00 | 04:00:14 | 0 | 18013
2 | 04:00:14 | 02:36:21 | 18014 | 29734
3 | 06:36:35 | 04:07:08 | 29735 | 48267
4 | 10:43:43 | 04:19:49 | 48268 | 67741
5 | 15:03:17 | 05:15:03 | 67742 | 91369
6 | 20:18:20 | 03:43:44 | 91370 | 108138
7 | 24:01:64 | 04:02:51 | 108139 | 126339
8 | 28:04:40 | 04:08:49 | 126340 | 144988
9 | 32:13:14 | 03:06:51 | 144989 | 158989
10 | 35:19:65 | 03:55:13 | 158990 | 176627
AccurateRip Summary
Disc not found in AccurateRip DB.
All Tracks
Album gain : -3.32 dB
Peak : 0.944122
Statistics
Read error : 0
Jitter error (maybe fixed) : 0
Retry sector count : 0
Damaged sector count : 0
Track 01
Filename : /rips/Bo Sundström - Mitt Dumma Jag (2018) [FLAC]/01 Försvann Du.flac
Pre-gap length : 00:02:00
Track gain : -1.24 dB
Peak : 0.906952
CRC32 hash (test run) : 6E7E4AB3
CRC32 hash : 6E7E4AB3
CRC32 hash (skip zero) : 3894FDE2
AccurateRip v1 signature : CFBC64CD
AccurateRip v2 signature : F9130184
->Track not present in AccurateRip database.
Statistics
Read error : 0
Jitter error (maybe fixed) : 0
Retry sector count : 0
Damaged sector count : 0
Track 02
Filename : /rips/Bo Sundström - Mitt Dumma Jag (2018) [FLAC]/02 Kommer Du Till Meg Inatt.flac
Track gain : -3.98 dB
Peak : 0.944092
CRC32 hash (test run) : B64EC095
CRC32 hash : B64EC095
CRC32 hash (skip zero) : E0AB5804
AccurateRip v1 signature : 698A2D07
AccurateRip v2 signature : EB6A8705
->Track not present in AccurateRip database.
Statistics
Read error : 0
Jitter error (maybe fixed) : 0
Retry sector count : 0
Damaged sector count : 0
Track 03
Filename : /rips/Bo Sundström - Mitt Dumma Jag (2018) [FLAC]/03 Sommaren Vi Älskade Varann.flac
Track gain : -4.25 dB
Peak : 0.944122
CRC32 hash (test run) : D88204AD
CRC32 hash : D88204AD
CRC32 hash (skip zero) : 4E0AC062
AccurateRip v1 signature : 2DC2F676
AccurateRip v2 signature : 80888BE1
->Track not present in AccurateRip database.
Statistics
Read error : 0
Jitter error (maybe fixed) : 0
Retry sector count : 0
Damaged sector count : 0
Track 04
Filename : /rips/Bo Sundström - Mitt Dumma Jag (2018) [FLAC]/04 Allt Är Som Förut.flac
Track gain : -2.32 dB
Peak : 0.944061
CRC32 hash (test run) : AADCAC10
CRC32 hash : AADCAC10
CRC32 hash (skip zero) : 7F015720
AccurateRip v1 signature : 43820902
AccurateRip v2 signature : 01137833
->Track not present in AccurateRip database.
Statistics
Read error : 0
Jitter error (maybe fixed) : 0
Retry sector count : 0
Damaged sector count : 0
Track 05
Filename : /rips/Bo Sundström - Mitt Dumma Jag (2018) [FLAC]/05 Mitt Dumma Jag.flac
Track gain : -1.00 dB
Peak : 0.893036
CRC32 hash (test run) : 3D964885
CRC32 hash : 3D964885
CRC32 hash (skip zero) : CA50DF71
AccurateRip v1 signature : 0101140E
AccurateRip v2 signature : 51E894E8
->Track not present in AccurateRip database.
Statistics
Read error : 0
Jitter error (maybe fixed) : 0
Retry sector count : 0
Damaged sector count : 0
Track 06
Filename : /rips/Bo Sundström - Mitt Dumma Jag (2018) [FLAC]/06 Monicas Vals.flac
Track gain : -4.79 dB
Peak : 0.944092
CRC32 hash (test run) : A271EB85
CRC32 hash : A271EB85
CRC32 hash (skip zero) : C4411508
AccurateRip v1 signature : 1D11813D
AccurateRip v2 signature : B5D8B188
->Track not present in AccurateRip database.
Statistics
Read error : 0
Jitter error (maybe fixed) : 0
Retry sector count : 0
Damaged sector count : 0
Track 07
Filename : /rips/Bo Sundström - Mitt Dumma Jag (2018) [FLAC]/07 Vad Fort Det Gick.flac
Track gain : -3.54 dB
Peak : 0.944122
CRC32 hash (test run) : 468C1EC5
CRC32 hash : 468C1EC5
CRC32 hash (skip zero) : 79F55AD4
AccurateRip v1 signature : 513F6677
AccurateRip v2 signature : 3FB86FF1
->Track not present in AccurateRip database.
Statistics
Read error : 0
Jitter error (maybe fixed) : 0
Retry sector count : 0
Damaged sector count : 0
Track 08
Filename : /rips/Bo Sundström - Mitt Dumma Jag (2018) [FLAC]/08 Vad Vet Du Om Kärlek.flac
Track gain : -3.00 dB
Peak : 0.944092
CRC32 hash (test run) : C4856984
CRC32 hash : C4856984
CRC32 hash (skip zero) : 303BABA5
AccurateRip v1 signature : A3E2C9B4
AccurateRip v2 signature : D5E14DB3
->Track not present in AccurateRip database.
Statistics
Read error : 0
Jitter error (maybe fixed) : 0
Retry sector count : 0
Damaged sector count : 0
Track 09
Filename : /rips/Bo Sundström - Mitt Dumma Jag (2018) [FLAC]/09 Önska Deg En Annan Man.flac
Track gain : -3.82 dB
Peak : 0.944092
CRC32 hash (test run) : C9153040
CRC32 hash : C9153040
CRC32 hash (skip zero) : 6D0A237E
AccurateRip v1 signature : DC3AA63F
AccurateRip v2 signature : 5F6AE3F5
->Track not present in AccurateRip database.
Statistics
Read error : 0
Jitter error (maybe fixed) : 0
Retry sector count : 0
Damaged sector count : 0
Track 10
Filename : /rips/Bo Sundström - Mitt Dumma Jag (2018) [FLAC]/10 Danny's Dream.flac
Track gain : -2.11 dB
Peak : 0.844055
CRC32 hash (test run) : E6312796
CRC32 hash : E6312796
CRC32 hash (skip zero) : 8CA2B899
AccurateRip v1 signature : E43582AB
AccurateRip v2 signature : D46FD732
->Track not present in AccurateRip database.
Statistics
Read error : 0
Jitter error (maybe fixed) : 0
Retry sector count : 0
Damaged sector count : 0
No errors occurred
End of status report
-----BEGIN XLD SIGNATURE-----
qIMaBQqhihl9Rb2nEfi_tBPe1Pc.a_glrB9X16vK_.F3_qNNXVB6a_iHNtUEQJ6IlJYccJtyEMFvTayuYWE5vMYXwcYo67cENDPYoJu
-----END XLD SIGNATURE-----
 
Содержание индексной карты (.CUE)
TITLE "Mitt dumma jag"
PERFORMER "Bo Sundstrom"
REM GENRE "Jazz"
REM DATE "2018"
REM DISCID 7909330A
REM REPLAYGAIN_ALBUM_GAIN -3.32 dB
REM REPLAYGAIN_ALBUM_PEAK 0.944122
FILE "01 - Forsvann du.flac" WAVE
TRACK 01 AUDIO
TITLE "Forsvann du"
ISRC SEBGA1700900
REM REPLAYGAIN_TRACK_GAIN -1.24 dB
REM REPLAYGAIN_TRACK_PEAK 0.906952
INDEX 01 00:00:00
FILE "02 - Kommer du till mig inatt.flac" WAVE
TRACK 02 AUDIO
TITLE "Kommer du till mig inatt"
ISRC SEBGA1700901
REM REPLAYGAIN_TRACK_GAIN -3.98 dB
REM REPLAYGAIN_TRACK_PEAK 0.944092
INDEX 01 00:00:00
FILE "03 - Sommaren vi alskade varann.flac" WAVE
TRACK 03 AUDIO
TITLE "Sommaren vi alskade varann"
ISRC SEBGA1700902
REM REPLAYGAIN_TRACK_GAIN -4.25 dB
REM REPLAYGAIN_TRACK_PEAK 0.944122
INDEX 01 00:00:00
FILE "04 - Allt ar som forut.flac" WAVE
TRACK 04 AUDIO
TITLE "Allt ar som forut"
ISRC SEBGA1700903
REM REPLAYGAIN_TRACK_GAIN -2.32 dB
REM REPLAYGAIN_TRACK_PEAK 0.944061
INDEX 01 00:00:00
FILE "05 - Mitt dumma jag.flac" WAVE
TRACK 05 AUDIO
TITLE "Mitt dumma jag"
ISRC SEBGA1700904
REM REPLAYGAIN_TRACK_GAIN -1.00 dB
REM REPLAYGAIN_TRACK_PEAK 0.893036
INDEX 01 00:00:00
FILE "06 - Monicas vals.flac" WAVE
TRACK 06 AUDIO
TITLE "Monicas vals"
ISRC SEBGA1700905
REM REPLAYGAIN_TRACK_GAIN -4.79 dB
REM REPLAYGAIN_TRACK_PEAK 0.944092
INDEX 01 00:00:00
FILE "07 - Vad fort det gick.flac" WAVE
TRACK 07 AUDIO
TITLE "Vad fort det gick"
ISRC SEBGA1700906
REM REPLAYGAIN_TRACK_GAIN -3.54 dB
REM REPLAYGAIN_TRACK_PEAK 0.944122
INDEX 01 00:00:00
FILE "08 - Vad vet du om karlek.flac" WAVE
TRACK 08 AUDIO
TITLE "Vad vet du om karlek"
ISRC SEBGA1700907
REM REPLAYGAIN_TRACK_GAIN -3.00 dB
REM REPLAYGAIN_TRACK_PEAK 0.944092
INDEX 01 00:00:00
FILE "09 - Onska dig en annan man.flac" WAVE
TRACK 09 AUDIO
TITLE "Onska dig en annan man"
ISRC SEBGA1700908
REM REPLAYGAIN_TRACK_GAIN -3.82 dB
REM REPLAYGAIN_TRACK_PEAK 0.944092
INDEX 01 00:00:00
FILE "10 - Danny's Dream.flac" WAVE
TRACK 10 AUDIO
TITLE "Danny's Dream"
ISRC SEBGA1700909
REM REPLAYGAIN_TRACK_GAIN -2.11 dB
REM REPLAYGAIN_TRACK_PEAK 0.844055
INDEX 01 00:00:00
 
Об альбоме (сборнике)
Den svenske vokalisten Bo Sundström er mest kjent som frontfigur og vokalist i bandet Bo Kaspers Orkester, som de siste 10-15 årene har vært en favoritt, gjerne hos et voksent, kvinnelig publikum. Bo Kaspers Orkesters to første plater ble spilt ofte i heimen (kanskje mest fordi det var et kvinnemenneske til stede), og låter som «Söndag i sengen» og «Ingenting alls» surret og gikk på de fleste radiokanaler på begynnelsen av 90-tallet.
Det som var spesielt med dette orkesteret, var deres kombinasjon av lettbeint popmusikk og jazz, og i bandet hadde man ofte med en blåserrekke med dyktige jazzmusikere.
Nå, mange år etter, er Bo Sundström ute med soloplate. «Mitt dumma jag» med undertittelen «svensk jazz», tar for seg en rekke jazzstandarder, omgjort til svensk, slik vi kjenner det fra spesielt Monika Zetterlund.
Vi får «(I Love You) For Sentimental Reasons» («Forsvann du» på svensk), og stemningen settes tilbake til Bo Kaspers Orkesters start. Deretter følger «The Way You Look Tonight» («Kommer du til mig i nat»), «Once Upon A Summertime» («Sommaren vi älskade varann»), «Allk The World Is Green» («Allt är som forut»), «My Foolish Heart» (Mitt dumma jag»), selvsagt «Waltz For Debby» («Monicas vals»), «Darn That Dream» («Vad fort det gick»), «You Don’t Love What Love Is» («Vad vet du om kärlek») og «I Can’t Give You Anything But Love» (Önska dig en annan man»), før de avslutter med «Danny’s Dream».
Hele veien er det Sundströms litt «flate» stemme som fører an. Han er utstyrt med en stemme man enten elsker eller hater, og på de første platene syntes jeg det låt sjarmerende, men nå er jeg ikke like sikker lenger. Alle låtene tolkes på noenlunde samme måte, selv om medmusikantene, som Björn Jansson på saksofoner og klarinett, Jonne Bentlöv på trompet og Vladan Wirant på piano gjør jobben sin uten plett og lyte. Men jeg synes det rett og slett blir litt kjedelig å høre hele platen i ett.
Men det finnes lyspunkter. Og «Monicas vals» gjøres på en fin måte, selv om det ikke kommer opp til ankelen på Zetterlund og Bill Evans versjoner. Mens sistesporet, Lars Gullins «Danny’s Dream», gjøres mange ganger bedre av de fleste barytonsaksofonistene som har begitt seg ut på denne komposisjonen.
Men platen er gjort akkurat slik fanklubben av begge kjønn vil ha det. Her i huset tror jeg ikke den vil snurre og gå altfor mye (så er det heller ikke så mange kvinner innom …
-- Jan Granlie
Приватный:
Нет (DHT включён)
Размер:
220.28 Мб (230,983,316 байт) » файлов: 16
Участники:
0 раздают, 0 качают (0 участников всего)
Внешние участники:
3 раздают, 1 качают (4 участников всего) [ Обновить ]
07:08
14
Нет комментариев. Ваш будет первым!