Поиск

(Jazz Vocal, Gospel, Ethno-Jazz) Iris and Ofer Portugaly - Collection - 3 альбома - 2003, 2007, 2013, FLAC (tracks+.cue), lossless

(Jazz Vocal, Gospel, Ethno-Jazz) Iris and Ofer Portugaly - Collection - 3 альбома - 2003, 2007, 2013, FLAC (tracks+.cue), lossless
Треклист:





Iris and Ofer Portugaly - Collection - 3 альбома - 2003, 2007, 2013

Три альбома известной в Израиле и весьма продуктивной супружеской пары. В ранних альбомах они начинали с поп-джаза, но постепенно стали более серьезными и изысканными
Страна исполнителя: Israel
Жанр: Jazz Vocal, Gospel, Ethno-Jazz || Аудио кодек: FLAC || Тип рипа: (tracks + .cue) || Битрейт аудио: lossless || Включает: Full artwork || Общая длительность: 3:23:34 || Источник : Моя коллекция
 
Gospel Jazz Live - 2003 (1:18:04)
Год издания оригинала: 2003
Страна - производитель диска: Israel
Издатель (лейбл): Self released
Номер по каталогу: No number
Тип: CD, Album, Live
Трэклист:
1. God Bless The Child - 6:41 (Billie Holiday)
2. Up Above My Head - 5:53 (Myron Butler)
Contains adapted lyrics from "Over My Head" African American Traditional
3. Breathe Into Me Oh Lord - 6:37 (PSALM 119:25) Fred Hammond, David Ivey
Lead Vocals - Sagiv Cohen & Adi Hirshhorn
4. You've Got A Friend - 4:55 (Carole King)
Lead Vocals - Iris Portugaly & Liron Peled
5. If - 7:00 (Iris Portugaly)
6. Yemenite Medley - 6:16
Lead Vocals - Ofra Ofer, Orit Hilel & Sagiv Cohen
7. Round Midnight - 7:28 (Thelonious Monk)
8. Oh Happy Day - 4:00 (E. Hawkins / Hebrew - Ehud Manor)
Lead Vocals - Gavriel Butler & Ariella Abrahamson
9. Moanin' - 6:08 (Bobby Timmons)
Lead Vocals - Liran Kopel, Dvir Cafri, Jonathan Shapira & Ofer Portugaly
10. Ode To Joy - 0:44 (Ludwig van Beethoven)
11. Joyful Joyful / Choir Introduction - 8:22
("Joyful Joyful" arranged by Mervyn Warren, Based on "Ode To Joy" from Beethoven's 9th Symphony). "What Have You Done For Me Lately" written by James Harris, Terry Lewis. "O.P.P. written by Alphonso Mizell, Freddie Perren, Deke Richards, Berry Gordy, Anthony Criss, Keir Gist, Vincent Brown. Additional rap lyrics by Ryan Toby. ("Choir Introduction" - Writen by Ofer Portugaly)
Lead Vocals - Ofra Ofer & Orit Hilel, Rap - Ayelet Chen, Sagiv Cohen & Liran Kopel
12. As - 7:00 (Stevie Wonder)
Lead Vocals - Efrat Sosner, Liron Peled, Ayelet Chen & Liora Hanukoglu-Gonzalez
13. Bohemian Rhapsody - 6:50 (Freddie Mercury)
Musical Arrangements & Production - Ofer Portugaly
Recorded LIVE on July 31 th & August 21th 2003 at Enav Caltural Ctr. In Tel Aviv by Ron Tichon.
Tracks #1,12,13- recorded at "Zohar Melody Studio".
 
Лог создания рипа
Exact Audio Copy V1.3 from 2. September 2016
EAC extraction logfile from 5. January 2017, 22:01
Iris and Ofer Portugaly / Gospel Jazz Live
Used drive : HL-DT-STDVDRAM GH24NSB0 Adapter: 1 ID: 0
Read mode : Secure
Utilize accurate stream : Yes
Defeat audio cache : Yes
Make use of C2 pointers : No
Read offset correction : 6
Overread into Lead-In and Lead-Out : No
Fill up missing offset samples with silence : Yes
Delete leading and trailing silent blocks : No
Null samples used in CRC calculations : Yes
Used interface : Native Win32 interface for Win NT & 2000
Gap handling : Appended to previous track
Used output format : User Defined Encoder
Selected bitrate : 1024 kBit/s
Quality : High
Add ID3 tag : No
Command line compressor : C:\Program Files (x86)\Exact Audio Copy\FLAC\FLAC.EXE
Additional command line options : -V -8 -T "Genre=%genre%" -T "Artist=%artist%" -T "Title=%title%" -T "Album=%albumtitle%" -T "Date=%year%" -T "Tracknumber=%tracknr%" -T "Comment=%comment%" %source%
TOC of the extracted CD
Track | Start | Length | Start sector | End sector
---------------------------------------------------------
1 | 0:00.00 | 6:41.12 | 0 | 30086
2 | 6:41.12 | 5:53.49 | 30087 | 56610
3 | 12:34.61 | 6:37.08 | 56611 | 86393
4 | 19:11.69 | 4:55.39 | 86394 | 108557
5 | 24:07.33 | 7:00.42 | 108558 | 140099
6 | 31:08.00 | 6:16.68 | 140100 | 168367
7 | 37:24.68 | 7:28.19 | 168368 | 201986
8 | 44:53.12 | 4:04.13 | 201987 | 220299
9 | 48:57.25 | 6:08.16 | 220300 | 247915
10 | 55:05.41 | 0:44.71 | 247916 | 251286
11 | 55:50.37 | 8:22.29 | 251287 | 288965
12 | 64:12.66 | 7:00.63 | 288966 | 320528
13 | 71:13.54 | 6:50.45 | 320529 | 351323
Track 1
Filename D:\Musicgate's rips\Iris and Ofer Portugaly - Gospel Jazz Live - 2003 (Self released)\01 - God Bless The Child.wav
Pre-gap length 0:00:02.00
Peak level 98.9 %
Extraction speed 1.2 X
Track quality 100.0 %
Test CRC F126EEDB
Copy CRC F126EEDB
Accurately ripped (confidence 1) [BF09A9B8] (AR v2)
Copy OK
Track 2
Filename D:\Musicgate's rips\Iris and Ofer Portugaly - Gospel Jazz Live - 2003 (Self released)\02 - Up Above My Head.wav
Peak level 98.9 %
Extraction speed 1.4 X
Track quality 100.0 %
Test CRC 47A211F5
Copy CRC 47A211F5
Accurately ripped (confidence 1) [85C47387] (AR v2)
Copy OK
Track 3
Filename D:\Musicgate's rips\Iris and Ofer Portugaly - Gospel Jazz Live - 2003 (Self released)\03 - Breathe Into Me Oh Lord.wav
Pre-gap length 0:00:00.02
Peak level 98.9 %
Extraction speed 1.6 X
Track quality 100.0 %
Test CRC 4EEB9CFA
Copy CRC 4EEB9CFA
Accurately ripped (confidence 1) [EB9CEBB1] (AR v2)
Copy OK
Track 4
Filename D:\Musicgate's rips\Iris and Ofer Portugaly - Gospel Jazz Live - 2003 (Self released)\04 - You've Got a Friend.wav
Peak level 98.8 %
Extraction speed 1.7 X
Track quality 100.0 %
Test CRC 6D052046
Copy CRC 6D052046
Accurately ripped (confidence 1) [CF363783] (AR v2)
Copy OK
Track 5
Filename D:\Musicgate's rips\Iris and Ofer Portugaly - Gospel Jazz Live - 2003 (Self released)\05 - If.wav
Peak level 98.8 %
Extraction speed 1.8 X
Track quality 100.0 %
Test CRC D647FC30
Copy CRC D647FC30
Accurately ripped (confidence 1) [228DCD43] (AR v2)
Copy OK
Track 6
Filename D:\Musicgate's rips\Iris and Ofer Portugaly - Gospel Jazz Live - 2003 (Self released)\06 - Yemenite Medley.wav
Peak level 98.8 %
Extraction speed 2.0 X
Track quality 100.0 %
Test CRC 3AE74A8B
Copy CRC 3AE74A8B
Accurately ripped (confidence 1) [B71897B5] (AR v2)
Copy OK
Track 7
Filename D:\Musicgate's rips\Iris and Ofer Portugaly - Gospel Jazz Live - 2003 (Self released)\07 - Round Midnight.wav
Peak level 98.8 %
Extraction speed 2.1 X
Track quality 100.0 %
Test CRC 1ADE65E9
Copy CRC 1ADE65E9
Accurately ripped (confidence 1) [5D8BE038] (AR v2)
Copy OK
Track 8
Filename D:\Musicgate's rips\Iris and Ofer Portugaly - Gospel Jazz Live - 2003 (Self released)\08 - Oh Happy Day.wav
Peak level 98.8 %
Extraction speed 2.1 X
Track quality 100.0 %
Test CRC B678B834
Copy CRC B678B834
Accurately ripped (confidence 1) [FEF98084] (AR v2)
Copy OK
Track 9
Filename D:\Musicgate's rips\Iris and Ofer Portugaly - Gospel Jazz Live - 2003 (Self released)\09 - Moanin'.wav
Peak level 98.8 %
Extraction speed 2.2 X
Track quality 100.0 %
Test CRC E5BCB065
Copy CRC E5BCB065
Accurately ripped (confidence 1) [5F29864F] (AR v2)
Copy OK
Track 10
Filename D:\Musicgate's rips\Iris and Ofer Portugaly - Gospel Jazz Live - 2003 (Self released)\10 - Ode to Joy.wav
Peak level 98.8 %
Extraction speed 1.4 X
Track quality 100.0 %
Test CRC FFD3A666
Copy CRC FFD3A666
Accurately ripped (confidence 1) [47FFBDFA] (AR v2)
Copy OK
Track 11
Filename D:\Musicgate's rips\Iris and Ofer Portugaly - Gospel Jazz Live - 2003 (Self released)\11 - Joyful Joyful,Choir introduction.wav
Peak level 98.8 %
Extraction speed 2.5 X
Track quality 100.0 %
Test CRC 317097E5
Copy CRC 317097E5
Accurately ripped (confidence 1) [47FC12FA] (AR v2)
Copy OK
Track 12
Filename D:\Musicgate's rips\Iris and Ofer Portugaly - Gospel Jazz Live - 2003 (Self released)\12 - As.wav
Peak level 98.9 %
Extraction speed 2.5 X
Track quality 100.0 %
Test CRC 0A33F065
Copy CRC 0A33F065
Accurately ripped (confidence 1) [0F057406] (AR v2)
Copy OK
Track 13
Filename D:\Musicgate's rips\Iris and Ofer Portugaly - Gospel Jazz Live - 2003 (Self released)\13 - Bohemian Raphsody.wav
Peak level 98.8 %
Extraction speed 2.6 X
Track quality 100.0 %
Test CRC BA2E37F5
Copy CRC BA2E37F5
Accurately ripped (confidence 1) [F64FEDBF] (AR v2)
Copy OK
All tracks accurately ripped
No errors occurred
End of status report
==== Log checksum ABF7269ACB8BEFD363AC11D93B0D5FBA42855E15F1FBE127E153DF033E01EF6B ====
 
Содержание индексной карты (.CUE):
REM GENRE "Jazz Israeli"
REM DATE 2003
REM DISCID C2124C0D
REM COMMENT "ExactAudioCopy v1.3"
PERFORMER "Iris and Ofer Portugaly"
TITLE "Gospel Jazz Live"
REM COMPOSER ""
FILE "01 - God Bless The Child.wav" WAVE
TRACK 01 AUDIO
TITLE "God Bless The Child"
PERFORMER "Iris and Ofer Portugaly"
REM COMPOSER ""
INDEX 01 00:00:00
FILE "02 - Up Above My Head.wav" WAVE
TRACK 02 AUDIO
TITLE "Up Above My Head"
PERFORMER "Iris and Ofer Portugaly"
REM COMPOSER ""
INDEX 01 00:00:00
TRACK 03 AUDIO
TITLE "Breathe Into Me Oh Lord"
PERFORMER "Iris and Ofer Portugaly"
REM COMPOSER ""
INDEX 00 05:53:47
FILE "03 - Breathe Into Me Oh Lord.wav" WAVE
INDEX 01 00:00:00
FILE "04 - You've Got a Friend.wav" WAVE
TRACK 04 AUDIO
TITLE "You've Got a Friend"
PERFORMER "Iris and Ofer Portugaly"
REM COMPOSER ""
INDEX 01 00:00:00
FILE "05 - If.wav" WAVE
TRACK 05 AUDIO
TITLE "If"
PERFORMER "Iris and Ofer Portugaly"
REM COMPOSER ""
INDEX 01 00:00:00
FILE "06 - Yemenite Medley.wav" WAVE
TRACK 06 AUDIO
TITLE "Yemenite Medley"
PERFORMER "Iris and Ofer Portugaly"
REM COMPOSER ""
INDEX 01 00:00:00
FILE "07 - Round Midnight.wav" WAVE
TRACK 07 AUDIO
TITLE "Round Midnight"
PERFORMER "Iris and Ofer Portugaly"
REM COMPOSER ""
INDEX 01 00:00:00
FILE "08 - Oh Happy Day.wav" WAVE
TRACK 08 AUDIO
TITLE "Oh Happy Day"
PERFORMER "Iris and Ofer Portugaly"
REM COMPOSER ""
INDEX 01 00:00:00
FILE "09 - Moanin'.wav" WAVE
TRACK 09 AUDIO
TITLE "Moanin'"
PERFORMER "Iris and Ofer Portugaly"
REM COMPOSER ""
INDEX 01 00:00:00
FILE "10 - Ode to Joy.wav" WAVE
TRACK 10 AUDIO
TITLE "Ode to Joy"
PERFORMER "Iris and Ofer Portugaly"
REM COMPOSER ""
INDEX 01 00:00:00
FILE "11 - Joyful Joyful,Choir introduction.wav" WAVE
TRACK 11 AUDIO
TITLE "Joyful Joyful/Choir introduction"
PERFORMER "Iris and Ofer Portugaly"
REM COMPOSER ""
INDEX 01 00:00:00
FILE "12 - As.wav" WAVE
TRACK 12 AUDIO
TITLE "As"
PERFORMER "Iris and Ofer Portugaly"
REM COMPOSER ""
INDEX 01 00:00:00
FILE "13 - Bohemian Raphsody.wav" WAVE
TRACK 13 AUDIO
TITLE "Bohemian Raphsody"
PERFORMER "Iris and Ofer Portugaly"
REM COMPOSER ""
INDEX 01 00:00:00
 
Лог проверки качества
 
Лог CUETools
[CUETools log; Date: 2/27/2018 7:40:38 AM; Version: 2.1.5]
[CTDB TOCID: 8ozdVdwKJu0SICk_i6BqS5k3oQs-] disk not present in database.
[AccurateRip ID: 0025b9eb-017655f4-c2124c0d] found.
Track [ CRC | V2 ] Status
01 [6a9a4a75|bf09a9b8] (0+1/1) Accurately ripped
02 [9af12266|85c47387] (0+1/1) Accurately ripped
03 [fb981268|eb9cebb1] (0+1/1) Accurately ripped
04 [35c17c82|cf363783] (0+1/1) Accurately ripped
05 [54c1e081|228dcd43] (0+1/1) Accurately ripped
06 [d1b1f63f|b71897b5] (0+1/1) Accurately ripped
07 [9147537e|5d8be038] (0+1/1) Accurately ripped
08 [009e94e4|fef98084] (0+1/1) Accurately ripped
09 [71f1d2a9|5f29864f] (0+1/1) Accurately ripped
10 [729eebe6|47ffbdfa] (0+1/1) Accurately ripped
11 [2a67af39|47fc12fa] (0+1/1) Accurately ripped
12 [0c62df52|0f057406] (0+1/1) Accurately ripped
13 [a3966a9a|f64fedbf] (0+1/1) Accurately ripped
Track Peak [ CRC32 ] [W/O NULL] [ LOG ]
-- 98.9 [13DAB836] [05DBB405]
01 98.9 [F126EEDB] [78042C42] CRC32
02 98.9 [47A211F5] [89F129D5] CRC32
03 98.8 [4EEB9CFA] [D2D2E1E8] CRC32
04 98.8 [6D052046] [1D42A073] CRC32
05 98.8 [D647FC30] [BD792F96] CRC32
06 98.7 [3AE74A8B] [2DD4A0D4] CRC32
07 98.8 [1ADE65E9] [B0978CB3] CRC32
08 98.8 [B678B834] [BE4B51F7] CRC32
09 98.8 [E5BCB065] [F10E898E] CRC32
10 98.8 [FFD3A666] [9203825A] CRC32
11 98.8 [317097E5] [7E8084A2] CRC32
12 98.9 [0A33F065] [C32FFD45] CRC32
13 98.8 [BA2E37F5] [744D01D8] CRC32
 
Замер динамического диапазона
foobar2000 1.3.10 / Замер динамического диапазона (DR) 1.1.1
Дата отчёта: 2018-04-17 08:46:54
--------------------------------------------------------------------------------
Анализ: Iris and Ofer Portugaly / Gospel Jazz Live
--------------------------------------------------------------------------------
DR Пики RMS Продолжительность трека
--------------------------------------------------------------------------------
DR10 -0.10 дБ -12.65 дБ 6:41 01-God Bless The Child
DR8 -0.10 дБ -10.76 дБ 5:54 02-Up Above My Head
DR9 -0.10 дБ -12.88 дБ 6:37 03-Breathe Into Me Oh Lord
DR8 -0.10 дБ -10.14 дБ 4:56 04-You've Got a Friend
DR9 -0.10 дБ -14.15 дБ 7:01 05-If
DR9 -0.11 дБ -12.86 дБ 6:17 06-Yemenite Medley
DR10 -0.10 дБ -14.00 дБ 7:28 07-Round Midnight
DR8 -0.10 дБ -11.71 дБ 4:04 08-Oh Happy Day
DR8 -0.10 дБ -12.31 дБ 6:08 09-Moanin'
DR11 -0.10 дБ -17.51 дБ 0:45 10-Ode to Joy
DR8 -0.10 дБ -12.43 дБ 8:22 11-Joyful Joyful/Choir introduction
DR7 -0.10 дБ -8.99 дБ 7:01 12-As
DR9 -0.10 дБ -13.53 дБ 6:51 13-Bohemian Raphsody
--------------------------------------------------------------------------------
Количество треков: 13
Реальные значения DR: DR9
Частота: 44100 Гц
Каналов: 2
Разрядность: 16
Битрейт: 813 кбит/с
Кодек: FLAC
================================================================================

 
Back
 
Диск
 
Матрица
 
Состав
Iris Portugaly: lead vocals
Gavriel Butler: lead vocals on "Oh Happy Day"
Eli Degibri: tenor saxophone
Ofer Portugaly: piano
Steve Peskoff: guitar on: "Up Above My Head", "Breathe Into Me Oh Lord", "You've Got A Friend", "If", "Round Midnight", "Moanin'" & "joyful joyful"
Yotam Silberstein: guitar on: "God Bless The Child", "As" & "Bohemian Rhapsody"
Ori Ben Zvi: guitar on: "Yemenite Medley" & "Oh Happy Day"
Oded Goldshmidt: bass
Amir David: drums
Sopranos: Ofra Ofer, Orit Hillel, Liora Hanukoglu-Gonzalez, Ariella Abrahamson, Liron Peled
Altos: Adi Hirshhorn, Efrat Sosner, Ayelet Chen
Tenors: Liran Kopel, Dvir Cafri, Sagiv Cohen, Yaniv Mintzer
Bass: Jonathan Shapira

 
Endless Story - 2007 (1:00:22)
Год издания оригинала: 2007
Страна - производитель диска: Israel
Издатель (лейбл): Self released
Номер по каталогу: No number
Тип: CD, Album, Records for radio broadcastings
Трэклист:
1. Endless Story (Iris Portugaly) 4:30
2. Love of My Life (Zanani & Ben Mush) 4:59
3. April 5th (Ofer Portugaly) 6:32
4. New Horizon (Iris & Ofer Portugaly) 3:52
5. West of here (Tirtsa Alar & Matti Caspi) 4:15
6. Tmuna Blues (Ofer Portugaly) 7:00
7. The One in Your Heart (Iris Portugaly) 3:57
8. The Rose in My Garden (Avihu Medina) 4:29
9. Song for Keith (Ofer Portugaly) 6:54
10. Rain (Y. Gilad & Y. Amsalem) 4:43
11. Always About You (Iris Portugaly) 3:55
12. Somewhere Over the Rainbow (Harold Arlen & E.Y. Harburg) 4:48
 
Лог создания рипа
Exact Audio Copy V1.3 from 2. September 2016
EAC extraction logfile from 15. January 2017, 20:22
איריס ועופר פורטוגלי / סיפור בהמשכים
Used drive : HL-DT-STDVDRAM GH24NSB0 Adapter: 1 ID: 0
Read mode : Secure
Utilize accurate stream : Yes
Defeat audio cache : Yes
Make use of C2 pointers : No
Read offset correction : 6
Overread into Lead-In and Lead-Out : No
Fill up missing offset samples with silence : Yes
Delete leading and trailing silent blocks : No
Null samples used in CRC calculations : Yes
Used interface : Native Win32 interface for Win NT & 2000
Gap handling : Appended to previous track
Used output format : User Defined Encoder
Selected bitrate : 1024 kBit/s
Quality : High
Add ID3 tag : No
Command line compressor : C:\Program Files (x86)\Exact Audio Copy\FLAC\FLAC.EXE
Additional command line options : -V -8 -T "Genre=%genre%" -T "Artist=%artist%" -T "Title=%title%" -T "Album=%albumtitle%" -T "Date=%year%" -T "Tracknumber=%tracknr%" -T "Comment=%comment%" %source%
TOC of the extracted CD
Track | Start | Length | Start sector | End sector
---------------------------------------------------------
1 | 0:00.00 | 4:31.53 | 0 | 20377
2 | 4:31.53 | 5:01.01 | 20378 | 42953
3 | 9:32.54 | 6:34.08 | 42954 | 72511
4 | 16:06.62 | 3:54.30 | 72512 | 90091
5 | 20:01.17 | 4:17.59 | 90092 | 109425
6 | 24:19.01 | 7:02.65 | 109426 | 141140
7 | 31:21.66 | 3:59.63 | 141141 | 159128
8 | 35:21.54 | 4:30.10 | 159129 | 179388
9 | 39:51.64 | 6:57.42 | 179389 | 210705
10 | 46:49.31 | 4:45.09 | 210706 | 232089
11 | 51:34.40 | 3:57.20 | 232090 | 249884
12 | 55:31.60 | 4:51.14 | 249885 | 271723
Track 1
Filename D:\Musicgate's rips\איריס ועופר פורטוגלי – סיפור בהמשכים - 2007\01 - סיפור בהמשכים.wav
Pre-gap length 0:00:02.00
Peak level 100.0 %
Extraction speed 1.1 X
Track quality 100.0 %
Test CRC 5FED5A20
Copy CRC 5FED5A20
Track not present in AccurateRip database
Copy OK
Track 2
Filename D:\Musicgate's rips\איריס ועופר פורטוגלי – סיפור בהמשכים - 2007\02 - אהבת חיי.wav
Peak level 100.0 %
Extraction speed 1.2 X
Track quality 100.0 %
Test CRC 0117E3CD
Copy CRC 0117E3CD
Track not present in AccurateRip database
Copy OK
Track 3
Filename D:\Musicgate's rips\איריס ועופר פורטוגלי – סיפור בהמשכים - 2007\03 - חמישה באפריל.wav
Peak level 98.0 %
Extraction speed 1.4 X
Track quality 100.0 %
Test CRC 73F89948
Copy CRC 73F89948
Track not present in AccurateRip database
Copy OK
Track 4
Filename D:\Musicgate's rips\איריס ועופר פורטוגלי – סיפור בהמשכים - 2007\04 - אופק חדש.wav
Peak level 100.0 %
Extraction speed 1.3 X
Track quality 99.9 %
Test CRC 53CBCD7D
Copy CRC 53CBCD7D
Track not present in AccurateRip database
Copy OK
Track 5
Filename D:\Musicgate's rips\איריס ועופר פורטוגלי – סיפור בהמשכים - 2007\05 - מערבה מכאן.wav
Peak level 100.0 %
Extraction speed 1.6 X
Track quality 100.0 %
Test CRC D8C01E43
Copy CRC D8C01E43
Track not present in AccurateRip database
Copy OK
Track 6
Filename D:\Musicgate's rips\איריס ועופר פורטוגלי – סיפור בהמשכים - 2007\06 - תמונע בלוז.wav
Peak level 89.1 %
Extraction speed 1.7 X
Track quality 100.0 %
Test CRC 5F730D1C
Copy CRC 5F730D1C
Track not present in AccurateRip database
Copy OK
Track 7
Filename D:\Musicgate's rips\איריס ועופר פורטוגלי – סיפור בהמשכים - 2007\07 - האיש שבליבך.wav
Peak level 100.0 %
Extraction speed 1.8 X
Track quality 100.0 %
Test CRC 8933875B
Copy CRC 8933875B
Track not present in AccurateRip database
Copy OK
Track 8
Filename D:\Musicgate's rips\איריס ועופר פורטוגלי – סיפור בהמשכים - 2007\08 - הפרח בגני.wav
Peak level 99.8 %
Extraction speed 1.8 X
Track quality 100.0 %
Test CRC 9DF428A3
Copy CRC 9DF428A3
Track not present in AccurateRip database
Copy OK
Track 9
Filename D:\Musicgate's rips\איריס ועופר פורטוגלי – סיפור בהמשכים - 2007\09 - Song for Keith.wav
Peak level 98.4 %
Extraction speed 2.0 X
Track quality 100.0 %
Test CRC F5DD828D
Copy CRC F5DD828D
Track not present in AccurateRip database
Copy OK
Track 10
Filename D:\Musicgate's rips\איריס ועופר פורטוגלי – סיפור בהמשכים - 2007\10 - גשם.wav
Peak level 100.0 %
Extraction speed 2.1 X
Track quality 100.0 %
Test CRC CB8B6832
Copy CRC CB8B6832
Track not present in AccurateRip database
Copy OK
Track 11
Filename D:\Musicgate's rips\איריס ועופר פורטוגלי – סיפור בהמשכים - 2007\11 - השירים תמיד עליך.wav
Peak level 98.9 %
Extraction speed 2.1 X
Track quality 100.0 %
Test CRC AC31F532
Copy CRC AC31F532
Track not present in AccurateRip database
Copy OK
Track 12
Filename D:\Musicgate's rips\איריס ועופר פורטוגלי – סיפור בהמשכים - 2007\12 - Somewhere Over The Rainbow.wav
Peak level 83.1 %
Extraction speed 2.0 X
Track quality 99.9 %
Test CRC 4337D61B
Copy CRC 4337D61B
Track not present in AccurateRip database
Copy OK
None of the tracks are present in the AccurateRip database
No errors occurred
End of status report
==== Log checksum CAE0D11BF054C4F6DF8600D04E1FCF7014A921F110B97756EC34F9B143DBCFBA ====
 
Содержание индексной карты (.CUE):
REM GENRE "Jazz Israeli"
REM DATE 2007
REM DISCID 9E0E260C
REM COMMENT "ExactAudioCopy v1.3"
PERFORMER "איריס ועופר פורטוגלי"
TITLE "סיפור בהמשכים"
REM COMPOSER ""
FILE "01 - סיפור בהמשכים.wav" WAVE
TRACK 01 AUDIO
TITLE "סיפור בהמשכים"
PERFORMER "איריס ועופר פורטוגלי"
REM COMPOSER ""
FLAGS DCP
INDEX 01 00:00:00
FILE "02 - אהבת חיי.wav" WAVE
TRACK 02 AUDIO
TITLE "אהבת חיי"
PERFORMER "איריס ועופר פורטוגלי"
REM COMPOSER ""
FLAGS DCP
INDEX 01 00:00:00
FILE "03 - חמישה באפריל.wav" WAVE
TRACK 03 AUDIO
TITLE "חמישה באפריל"
PERFORMER "איריס ועופר פורטוגלי"
REM COMPOSER ""
FLAGS DCP
INDEX 01 00:00:00
FILE "04 - אופק חדש.wav" WAVE
TRACK 04 AUDIO
TITLE "אופק חדש"
PERFORMER "איריס ועופר פורטוגלי"
REM COMPOSER ""
FLAGS DCP
INDEX 01 00:00:00
FILE "05 - מערבה מכאן.wav" WAVE
TRACK 05 AUDIO
TITLE "מערבה מכאן"
PERFORMER "איריס ועופר פורטוגלי"
REM COMPOSER ""
FLAGS DCP
INDEX 01 00:00:00
FILE "06 - תמונע בלוז.wav" WAVE
TRACK 06 AUDIO
TITLE "תמונע בלוז"
PERFORMER "איריס ועופר פורטוגלי"
REM COMPOSER ""
FLAGS DCP
INDEX 01 00:00:00
FILE "07 - האיש שבליבך.wav" WAVE
TRACK 07 AUDIO
TITLE "האיש שבליבך"
PERFORMER "איריס ועופר פורטוגלי"
REM COMPOSER ""
FLAGS DCP
INDEX 01 00:00:00
FILE "08 - הפרח בגני.wav" WAVE
TRACK 08 AUDIO
TITLE "הפרח בגני"
PERFORMER "איריס ועופר פורטוגלי"
REM COMPOSER ""
FLAGS DCP
INDEX 01 00:00:00
FILE "09 - Song for Keith.wav" WAVE
TRACK 09 AUDIO
TITLE "Song for Keith"
PERFORMER "איריס ועופר פורטוגלי"
REM COMPOSER ""
FLAGS DCP
INDEX 01 00:00:00
FILE "10 - גשם.wav" WAVE
TRACK 10 AUDIO
TITLE "גשם"
PERFORMER "איריס ועופר פורטוגלי"
REM COMPOSER ""
FLAGS DCP
INDEX 01 00:00:00
FILE "11 - השירים תמיד עליך.wav" WAVE
TRACK 11 AUDIO
TITLE "השירים תמיד עליך"
PERFORMER "איריס ועופר פורטוגלי"
REM COMPOSER ""
FLAGS DCP
INDEX 01 00:00:00
FILE "12 - Somewhere Over The Rainbow.wav" WAVE
TRACK 12 AUDIO
TITLE "Somewhere Over The Rainbow"
PERFORMER "איריס ועופר פורטוגלי"
REM COMPOSER ""
FLAGS DCP
INDEX 01 00:00:00
 
Лог проверки качества
 
Лог CUETools
[CUETools log; Date: 2/27/2018 7:40:46 AM; Version: 2.1.5]
[CTDB TOCID: bbIPMhSg9UU.SBOS1zb0eegm77A-] disk not present in database.
[AccurateRip ID: 001b26e2-00fdcdc5-9e0e260c] disk not present in database.
Track Peak [ CRC32 ] [W/O NULL] [ LOG ]
-- 100.0 [3EBDCC22] [60A1EC1E]
01 100.0 [5FED5A20] [E8E9A1D3] CRC32
02 100.0 [0117E3CD] [13F4D119] CRC32
03 98.0 [73F89948] [A6F9DFDC] CRC32
04 100.0 [53CBCD7D] [D1295953] CRC32
05 100.0 [D8C01E43] [38F04274] CRC32
06 89.1 [5F730D1C] [E47F8A38] CRC32
07 100.0 [8933875B] [0D000AE4] CRC32
08 99.8 [9DF428A3] [561D61BE] CRC32
09 98.4 [F5DD828D] [CF94A1BC] CRC32
10 100.0 [CB8B6832] [5A14F113] CRC32
11 98.9 [AC31F532] [24E2B42F] CRC32
12 83.1 [4337D61B] [D81AC336] CRC32
 
Замер динамического диапазона
foobar2000 1.3.10 / Замер динамического диапазона (DR) 1.1.1
Дата отчёта: 2018-04-17 08:11:46
--------------------------------------------------------------------------------
Анализ: איריס ועופר פורטוגלי / סיפור בהמשכים
--------------------------------------------------------------------------------
DR Пики RMS Продолжительность трека
--------------------------------------------------------------------------------
DR8 0.00 дБ -11.15 дБ 4:32 01-סיפור בהמשכים
DR10 0.00 дБ -13.30 дБ 5:01 02-אהבת חיי
DR9 -0.17 дБ -11.07 дБ 6:34 03-חמישה באפריל
DR10 0.00 дБ -13.54 дБ 3:54 04-אופק חדש
DR12 0.00 дБ -15.26 дБ 4:18 05-מערבה מכאן
DR10 -1.00 дБ -14.06 дБ 7:03 06-תמונע בלוז
DR8 0.00 дБ -11.18 дБ 4:00 07-האיש שבליבך
DR9 -0.01 дБ -12.20 дБ 4:30 08-הפרח בגני
DR10 -0.14 дБ -12.57 дБ 6:58 09-Song for Keith
DR10 0.00 дБ -13.17 дБ 4:45 10-גשם
DR8 -0.09 дБ -10.75 дБ 3:57 11-השירים תמיד עליך
DR6 -1.60 дБ -11.14 дБ 4:51 12-Somewhere Over The Rainbow
--------------------------------------------------------------------------------
Количество треков: 12
Реальные значения DR: DR9
Частота: 44100 Гц
Каналов: 2
Разрядность: 16
Битрейт: 796 кбит/с
Кодек: FLAC
================================================================================

 
Back
 
Диск
 
Матрица
 
Состав
Iris Portugaly - voice & drums
Ofer Portugaly - piano
Oded Goldshmidt - contrabass, electric bass
Additional musicians:
Amos Hoffman - guitar, oud (2,3,8,10)
Avi Lebovich - trombone (2,3,8)
Ilan Salem - flute (2,3,8,10,12)
Eli Degibri - tenor saxophone (3,5,6,9)
Yoed Nir - cello (1,7)
Zohar Fresco - percussion (2,6)
Gil Louis - guitars (11,12)
The Gospel Choir: Sopranos - Orit Hillel, Liora Hanukoglu - Gonzalez, Ariella Abrahamson - Ninyo, Rina Tal-, Altos - Adi Hirshhorn, Michal Guy, Ayelet Chen, Tenors - Amit Deitchman, Yaron spivack, Gil mozes, Baritone - Yotam mahler, Ray Livnat (11,12)

 
The Lord Of Forgivenes - 2013 (1:05:06)
Дата записи: live at Heichal Hatarbut Rishon Lezion. April 2013
Год издания оригинала: 2013
Страна - производитель диска: Israel
Издатель (лейбл): High Fidelity
Номер по каталогу: No number
Тип: CD, Album, Live
Трэклист:
1. Adon Olam (The Lord of All) (Lyrics: From the prayers, Music: Uzi Hitman)
Lead Vocals: Iris Portugaly
2. Shir LaMa'alot (Lyrics: Tehilim (Psalm 121:1-2) (Music: Yosef Karduner)
Lead Vocals: Michal Guy, Amit Deitchman
3. Lu Yehi / Let It Be (Lyrics & Music: John Lennon - Paul McCartney / Naomi Shemer)
Lead Vocals: Nadav Hazut, Yossi Hillel, Amit Deitchman, Maya Biran, Iris Portugaly
4. Adon Haselichot (Lord of Forgiveness) (Lyrics: From the prayers, Music: Folk Sefaradi-Israeli)
5. Yedid Nefesh (Beloved Of The Soul) (Lyrics: Sara Zweig / Ehud Zweig, Music: Rabbi Eleazar Azikri)
Lead Vocals: Iris Portugaly, Liora Hanukoglu-Gonzalez
6. Yom Yavo (A Day Will Come) (Lyrics: Dan Almagor, Music: Benny Nagari)
Lead Vocals: Iris Portugaly, Yael Mintz, Sigal Levy, Keren Eilenberg, Liora Hanukoglu-Gonzalez
7. HaPerach BeGani (The Rose in My Garden) (Lyrics & Music: Avihu Medina)
Lead Vocals: Iris Portugaly
8. Eeroch Mahalal Nivi (Lyrics: Rabbi David Hassine, Music: Folk Sefaradi-Yerushalmi)
Lead Vocals: Gil Moses
9. Hitragut (Relaxation) (Lyrics: Yehuda Kami, Music: Nachum Nardi to folk Jewish-Spanish)
Lead Vocals: Iris Portugaly
10. Ki Tavo'u El Ha'aretz (When You Come into the Land) (Lyrics: From the Bible, Music: Folk)
Voices: Amit Deitchman, Iris Portugaly
11. Yom Gadol / Oh Happy Day (Lyrics & Music: Edwin Hawkins, Hebrew Version: Ehud Manor)
Lead Vocals: Chen Yamin, Maya Biran, Keren Eilenberg
12. El Ginat Egoz (Lyrics: From the Bible, Music: Sarah Levi Tanai)
Lead Vocals: Amit Deitchman
13. bonus track: New Horizon (Iris & Ofer Portugaly)
Iris Portugaly- voice & drums; Eli Degibri - saxophone; Ofer Portugaly -piano; Oded Goldshmidt - double bass; The Gospel Choir - voices
New Horizon was recorded in Luna Studios by Guy Lebiush
 
Лог создания рипа
Exact Audio Copy V1.0 beta 3 from 29. August 2011
EAC extraction logfile from 28. December 2013, 22:02
Iris & Ofer Portugaly / The Lord Of Forgivenes
Used drive : HL-DT-STDVD-RAM GH22NP20 Adapter: 0 ID: 0
Read mode : Secure
Utilize accurate stream : Yes
Defeat audio cache : Yes
Make use of C2 pointers : No
Read offset correction : 102
Overread into Lead-In and Lead-Out : No
Fill up missing offset samples with silence : Yes
Delete leading and trailing silent blocks : No
Null samples used in CRC calculations : Yes
Used interface : Native Win32 interface for Win NT & 2000
Gap handling : Appended to previous track
Used output format : User Defined Encoder
Selected bitrate : 1024 kBit/s
Quality : High
Add ID3 tag : No
Command line compressor : C:\Program Files\Exact Audio Copy\Flac\flac.exe
Additional command line options : -V -8 -T "Genre=%genre%" -T "Artist=%artist%" -T "Title=%title%" -T "Album=%albumtitle%" -T "Date=%year%" -T "Tracknumber=%tracknr%" -T "Comment=%comment%" %source%
TOC of the extracted CD
Track | Start | Length | Start sector | End sector
---------------------------------------------------------
1 | 0:00.00 | 3:36.74 | 0 | 16273
2 | 3:36.74 | 4:35.51 | 16274 | 36949
3 | 8:12.50 | 5:22.74 | 36950 | 61173
4 | 13:35.49 | 5:21.69 | 61174 | 85317
5 | 18:57.43 | 5:14.18 | 85318 | 108885
6 | 24:11.61 | 4:31.26 | 108886 | 129236
7 | 28:43.12 | 8:33.10 | 129237 | 167721
8 | 37:16.22 | 4:51.13 | 167722 | 189559
9 | 42:07.35 | 3:55.33 | 189560 | 207217
10 | 46:02.68 | 4:28.58 | 207218 | 227375
11 | 50:31.51 | 3:50.15 | 227376 | 244640
12 | 54:21.66 | 6:54.26 | 244641 | 275716
13 | 61:16.17 | 3:50.43 | 275717 | 293009
Track 1
Filename D:\music\Musicgate's rips\Iris & Ofer Portugaly - The Lord Of Forgivenes - 2013 (High Fidelity)\01 - The Lord Of All.wav
Pre-gap length 0:00:02.00
Peak level 96.7 %
Extraction speed 1.7 X
Track quality 100.0 %
Test CRC B0224A1E
Copy CRC B0224A1E
Track not present in AccurateRip database
Copy OK
Track 2
Filename D:\music\Musicgate's rips\Iris & Ofer Portugaly - The Lord Of Forgivenes - 2013 (High Fidelity)\02 - Shir HaMa'alot.wav
Peak level 96.7 %
Extraction speed 2.0 X
Track quality 100.0 %
Test CRC F3B383F6
Copy CRC F3B383F6
Track not present in AccurateRip database
Copy OK
Track 3
Filename D:\music\Musicgate's rips\Iris & Ofer Portugaly - The Lord Of Forgivenes - 2013 (High Fidelity)\03 - Let It Be.wav
Peak level 96.7 %
Extraction speed 2.2 X
Track quality 100.0 %
Test CRC 9A669212
Copy CRC 9A669212
Track not present in AccurateRip database
Copy OK
Track 4
Filename D:\music\Musicgate's rips\Iris & Ofer Portugaly - The Lord Of Forgivenes - 2013 (High Fidelity)\04 - The Lord Of Forgivenes.wav
Peak level 96.7 %
Extraction speed 2.4 X
Track quality 100.0 %
Test CRC 1691388C
Copy CRC 1691388C
Track not present in AccurateRip database
Copy OK
Track 5
Filename D:\music\Musicgate's rips\Iris & Ofer Portugaly - The Lord Of Forgivenes - 2013 (High Fidelity)\05 - Beloved Of The Soul.wav
Peak level 96.7 %
Extraction speed 2.6 X
Track quality 100.0 %
Test CRC 9C82AC34
Copy CRC 9C82AC34
Track not present in AccurateRip database
Copy OK
Track 6
Filename D:\music\Musicgate's rips\Iris & Ofer Portugaly - The Lord Of Forgivenes - 2013 (High Fidelity)\06 - A Day Will Come.wav
Peak level 96.7 %
Extraction speed 2.7 X
Track quality 100.0 %
Test CRC 627D2ED9
Copy CRC 627D2ED9
Track not present in AccurateRip database
Copy OK
Track 7
Filename D:\music\Musicgate's rips\Iris & Ofer Portugaly - The Lord Of Forgivenes - 2013 (High Fidelity)\07 - The Rose In My Garden.wav
Peak level 96.7 %
Extraction speed 3.0 X
Track quality 100.0 %
Test CRC A945C445
Copy CRC A945C445
Track not present in AccurateRip database
Copy OK
Track 8
Filename D:\music\Musicgate's rips\Iris & Ofer Portugaly - The Lord Of Forgivenes - 2013 (High Fidelity)\08 - Eeroch Mahalal Nivi.wav
Peak level 96.7 %
Extraction speed 2.7 X
Track quality 99.9 %
Test CRC 1166398C
Copy CRC 1166398C
Track not present in AccurateRip database
Copy OK
Track 9
Filename D:\music\Musicgate's rips\Iris & Ofer Portugaly - The Lord Of Forgivenes - 2013 (High Fidelity)\09 - Relaxation.wav
Peak level 96.7 %
Extraction speed 3.1 X
Track quality 100.0 %
Test CRC 303CCFA3
Copy CRC 303CCFA3
Track not present in AccurateRip database
Copy OK
Track 10
Filename D:\music\Musicgate's rips\Iris & Ofer Portugaly - The Lord Of Forgivenes - 2013 (High Fidelity)\10 - When You Come Into The Land.wav
Peak level 96.7 %
Extraction speed 3.3 X
Track quality 100.0 %
Test CRC 43510F28
Copy CRC 43510F28
Track not present in AccurateRip database
Copy OK
Track 11
Filename D:\music\Musicgate's rips\Iris & Ofer Portugaly - The Lord Of Forgivenes - 2013 (High Fidelity)\11 - Oh Happy Day.wav
Peak level 96.7 %
Extraction speed 3.3 X
Track quality 100.0 %
Test CRC 23A659B7
Copy CRC 23A659B7
Track not present in AccurateRip database
Copy OK
Track 12
Filename D:\music\Musicgate's rips\Iris & Ofer Portugaly - The Lord Of Forgivenes - 2013 (High Fidelity)\12 - El Ginat Egoz.wav
Peak level 96.7 %
Extraction speed 3.4 X
Track quality 99.9 %
Test CRC 45D9E14C
Copy CRC 45D9E14C
Track not present in AccurateRip database
Copy OK
Track 13
Filename D:\music\Musicgate's rips\Iris & Ofer Portugaly - The Lord Of Forgivenes - 2013 (High Fidelity)\13 - New Horison.wav
Pre-gap length 0:00:00.01
Peak level 96.7 %
Extraction speed 3.6 X
Track quality 100.0 %
Test CRC 2443A815
Copy CRC 2443A815
Track not present in AccurateRip database
Copy OK
None of the tracks are present in the AccurateRip database
No errors occurred
End of status report
==== Log checksum 2D147690E92CEE303C6BA853F0C52FD42E92E71407CCC301D3304912D11AAD0B ====
 
Содержание индексной карты (.CUE):
REM GENRE "Israeli jazz & gospel"
REM DATE 2013
REM DISCID BB0F420D
REM COMMENT "ExactAudioCopy v1.0b3"
PERFORMER "Iris & Ofer Portugaly"
TITLE "The Lord Of Forgivenes"
FILE "01 - The Lord Of All.wav" WAVE
TRACK 01 AUDIO
TITLE "The Lord Of All"
PERFORMER "Iris & Ofer Portugaly"
FLAGS DCP
INDEX 01 00:00:00
FILE "02 - Shir HaMa'alot.wav" WAVE
TRACK 02 AUDIO
TITLE "Shir HaMa'alot"
PERFORMER "Iris & Ofer Portugaly"
FLAGS DCP
INDEX 01 00:00:00
FILE "03 - Let It Be.wav" WAVE
TRACK 03 AUDIO
TITLE "Let It Be"
PERFORMER "Iris & Ofer Portugaly"
FLAGS DCP
INDEX 01 00:00:00
FILE "04 - The Lord Of Forgivenes.wav" WAVE
TRACK 04 AUDIO
TITLE "The Lord Of Forgivenes"
PERFORMER "Iris & Ofer Portugaly"
FLAGS DCP
INDEX 01 00:00:00
FILE "05 - Beloved Of The Soul.wav" WAVE
TRACK 05 AUDIO
TITLE "Beloved Of The Soul"
PERFORMER "Iris & Ofer Portugaly"
FLAGS DCP
INDEX 01 00:00:00
FILE "06 - A Day Will Come.wav" WAVE
TRACK 06 AUDIO
TITLE "A Day Will Come"
PERFORMER "Iris & Ofer Portugaly"
FLAGS DCP
INDEX 01 00:00:00
FILE "07 - The Rose In My Garden.wav" WAVE
TRACK 07 AUDIO
TITLE "The Rose In My Garden"
PERFORMER "Iris & Ofer Portugaly"
FLAGS DCP
INDEX 01 00:00:00
FILE "08 - Eeroch Mahalal Nivi.wav" WAVE
TRACK 08 AUDIO
TITLE "Eeroch Mahalal Nivi"
PERFORMER "Iris & Ofer Portugaly"
FLAGS DCP
INDEX 01 00:00:00
FILE "09 - Relaxation.wav" WAVE
TRACK 09 AUDIO
TITLE "Relaxation"
PERFORMER "Iris & Ofer Portugaly"
FLAGS DCP
INDEX 01 00:00:00
FILE "10 - When You Come Into The Land.wav" WAVE
TRACK 10 AUDIO
TITLE "When You Come Into The Land"
PERFORMER "Iris & Ofer Portugaly"
FLAGS DCP
INDEX 01 00:00:00
FILE "11 - Oh Happy Day.wav" WAVE
TRACK 11 AUDIO
TITLE "Oh Happy Day"
PERFORMER "Iris & Ofer Portugaly"
FLAGS DCP
INDEX 01 00:00:00
FILE "12 - El Ginat Egoz.wav" WAVE
TRACK 12 AUDIO
TITLE "El Ginat Egoz"
PERFORMER "Iris & Ofer Portugaly"
FLAGS DCP
INDEX 01 00:00:00
TRACK 13 AUDIO
TITLE "New Horison"
PERFORMER "Iris & Ofer Portugaly"
FLAGS DCP
INDEX 00 06:54:25
FILE "13 - New Horison.wav" WAVE
INDEX 01 00:00:00
 
Лог CUETools
[CUETools log; Date: 2/27/2018 7:40:27 AM; Version: 2.1.5]
[CTDB TOCID: 5I7qxth23MA1wVZSY5xOXIAp1AI-] disk not present in database.
[AccurateRip ID: 001f2ccb-013a9309-bb0f420d] found.
Track [ CRC | V2 ] Status
01 [baef384f|b571e75b] (0+1/1) Accurately ripped
02 [36a9a904|d80be8dc] (0+1/1) Accurately ripped
03 [83423f5e|056be3cc] (0+1/1) Accurately ripped
04 [70543e12|1f367186] (0+1/1) Accurately ripped
05 [75cfc49e|cc5c7be7] (0+1/1) Accurately ripped
06 [475c2495|2cd68488] (0+1/1) Accurately ripped
07 [a473c762|bc21b1b3] (0+1/1) Accurately ripped
08 [adbfba5c|f04584ad] (0+1/1) Accurately ripped
09 [c773dd59|410ce917] (0+1/1) Accurately ripped
10 [35cfd38f|08dc896b] (0+1/1) Accurately ripped
11 [8e1d8892|36671e70] (0+1/1) Accurately ripped
12 [65088bfd|9ee6bd64] (0+1/1) Accurately ripped
13 [33ca81db|13c9793a] (0+1/1) Accurately ripped
Track Peak [ CRC32 ] [W/O NULL] [ LOG ]
-- 96.7 [2EF35AAC] [D16002A6]
01 96.7 [B0224A1E] [A0F31BBE] CRC32
02 96.7 [F3B383F6] [9162DDA3] CRC32
03 96.7 [9A669212] [C1B528B4] CRC32
04 96.7 [1691388C] [9A398185] CRC32
05 96.7 [9C82AC34] [601F4418] CRC32
06 96.7 [627D2ED9] [DCAE072A] CRC32
07 96.7 [A945C445] [F1719047] CRC32
08 96.7 [1166398C] [4CE16D02] CRC32
09 96.7 [303CCFA3] [4F129693] CRC32
10 96.7 [43510F28] [F7A6478F] CRC32
11 96.7 [23A659B7] [CEC1256E] CRC32
12 96.7 [45D9E14C] [E3D320C0] CRC32
13 96.7 [2443A815] [EC7254CD] CRC32
 
Замер динамического диапазона
foobar2000 1.3.10 / Замер динамического диапазона (DR) 1.1.1
Дата отчёта: 2018-04-17 08:46:21
--------------------------------------------------------------------------------
Анализ: Iris & Ofer Portugaly / The Lord Of Forgivenes
--------------------------------------------------------------------------------
DR Пики RMS Продолжительность трека
--------------------------------------------------------------------------------
DR9 -0.28 дБ -11.01 дБ 3:37 01-The Lord Of All
DR9 -0.28 дБ -11.77 дБ 4:36 02-Shir HaMa'alot
DR10 -0.29 дБ -12.36 дБ 5:23 03-Let It Be
DR8 -0.28 дБ -10.78 дБ 5:22 04-The Lord Of Forgivenes
DR8 -0.28 дБ -10.08 дБ 5:14 05-Beloved Of The Soul
DR9 -0.28 дБ -11.80 дБ 4:31 06-A Day Will Come
DR8 -0.28 дБ -10.72 дБ 8:33 07-The Rose In My Garden
DR9 -0.29 дБ -10.67 дБ 4:51 08-Eeroch Mahalal Nivi
DR10 -0.29 дБ -12.55 дБ 3:55 09-Relaxation
DR7 -0.28 дБ -9.13 дБ 4:29 10-When You Come Into The Land
DR9 -0.28 дБ -11.18 дБ 3:50 11-Oh Happy Day
DR8 -0.28 дБ -11.37 дБ 6:54 12-El Ginat Egoz
DR10 -0.29 дБ -13.47 дБ 3:51 13-New Horison
--------------------------------------------------------------------------------
Количество треков: 13
Реальные значения DR: DR9
Частота: 44100 Гц
Каналов: 2
Разрядность: 16
Битрейт: 909 кбит/с
Кодек: FLAC
================================================================================

 
Back
 
Диск
 
Матрица
 
Состав
In "Hitragut": Flutes - Tali Rubinstein; Percussion - Avi Agababa
In "Yom Yavo": Drums - Shalev Ne'eman
Iris Portugaly - voice & drums;
Ofer Portugaly - piano, voice, musical direction & arrangements;
Eli Benacot - EWI;
Yaniv Taichman - oud & guitars;
Noa Ayali - cello;
Oded Goldshmidt - bass;
Shalev Ne'eman- percussion;
The Gospel Choir: Sopranos - Liora Hanukoglu-Gonzalez, Keren Eilenberg, Chen Yamin, Sigal Levy ; Altos - Michal Guy, Yael Mintz, Maya Biran; Tenors - Amit Deitchman, Gil Moses ; Bass -Yossi Hillel, Nadav Hazut;
Musical arrangement & productions: Ofer Portugaly

Приватный:
Нет (DHT включён)
Размер:
1.37 Гб (1,469,247,039 байт) » файлов: 79
Участники:
0 раздают, 0 качают (0 участников всего)
Внешние участники:
--- [ Обновить ]
07:09
3
Нет комментариев. Ваш будет первым!