Поиск

(Vocal Jazz, Bossa Nova) [CD] Maria Schafer - To Know Love... - 2018, FLAC (tracks+.cue), lossless

(Vocal Jazz, Bossa Nova) [CD] Maria Schafer - To Know Love... - 2018, FLAC (tracks+.cue), lossless
Треклист:
Maria Schafer - To Know Love...
Жанр: Vocal Jazz, Bossa Nova
Носитель: CD
Страна-производитель диска (релиза): США
Год издания: 2018
Издатель (лейбл): Marsch Music
Номер по каталогу: MM0001
Аудиокодек: FLAC (*.flac)
Тип рипа: tracks+.cue
Битрейт аудио: lossless
Продолжительность: 59:26
Источник (релизер): PeepingTomPayne
Наличие сканов в содержимом раздачи: нет
Треклист:
01. You Don't Know What Love Is (4:30)
02. The More I See You (5:20)
03. Estrada Branca (3:49)
04. I Fall in Love Too Easily (5:06)
05. Bewitched, Bothered, and Bewildered (6:36)
06. In Summer (Estate) (5:46)
07. You'd Be So Nice to Come Home To/Alone Together (4:36)
08. Body and Soul (6:23)
09. It Could Happen to You (3:26)
10. Almost Like Being in Love (4:27)
11. Lush Life (4:35)
12. 'S Wonderful/They Can't Take That Away from Me (4:52)
Состав:
Maria Schafer - vocals
Shane Savala - guitar
Joe Butts - bass
Kyle Sharamitaro - drums
Brad Black - trumpet
Recorded at Marigny Studios, New Orleans, LA.
 
Лог создания рипа
Exact Audio Copy V1.1 from 23. June 2015
EAC extraction logfile from 10. April 2018, 15:38
Maria Schafer / To Know Love...
Used drive : Lenovo Slim_USB_Burner Adapter: 1 ID: 1
Read mode : Secure
Utilize accurate stream : Yes
Defeat audio cache : Yes
Make use of C2 pointers : No
Read offset correction : 6
Overread into Lead-In and Lead-Out : No
Fill up missing offset samples with silence : Yes
Delete leading and trailing silent blocks : No
Null samples used in CRC calculations : Yes
Used interface : Native Win32 interface for Win NT & 2000
Gap handling : Appended to previous track
Used output format : User Defined Encoder
Selected bitrate : 896 kBit/s
Quality : High
Add ID3 tag : No
Command line compressor : C:\Program Files (x86)\Exact Audio Copy\Flac\flac.exe
Additional command line options : -8 -V -T "ARTIST=%artist%" -T "TITLE=%title%" -T "ALBUM=%albumtitle%" -T "DATE=%year%" -T "TRACKNUMBER=%tracknr%" -T "GENRE=%genre%" -T "PERFORMER=%albuminterpret%" -T "COMPOSER=%composer%" %haslyrics%--tag-from-file=LYRICS="%lyricsfile%"%haslyrics% -T "ALBUMARTIST=%albumartist%" -T "DISCNUMBER=%cdnumber%" -T "TOTALDISCS=%totalcds%" -T "TOTALTRACKS=%numtracks%" -T "COMMENT=%comment%" %source% -o %dest%
TOC of the extracted CD
Track | Start | Length | Start sector | End sector
---------------------------------------------------------
1 | 0:00.00 | 4:29.44 | 0 | 20218
2 | 4:29.44 | 5:20.04 | 20219 | 44222
3 | 9:49.48 | 3:48.51 | 44223 | 61373
4 | 13:38.24 | 5:05.53 | 61374 | 84301
5 | 18:44.02 | 6:35.53 | 84302 | 113979
6 | 25:19.55 | 5:46.32 | 113980 | 139961
7 | 31:06.12 | 4:35.47 | 139962 | 160633
8 | 35:41.59 | 6:23.30 | 160634 | 189388
9 | 42:05.14 | 3:26.25 | 189389 | 204863
10 | 45:31.39 | 4:26.56 | 204864 | 224869
11 | 49:58.20 | 4:35.02 | 224870 | 245496
12 | 54:33.22 | 4:51.53 | 245497 | 267374
Track 1
Filename C:\EAC Rips\Maria Schafer - To Know Love... (2018) [FLAC]\01 - You Don't Know What Love Is.wav
Pre-gap length 0:00:02.00
Peak level 99.2 %
Extraction speed 1.4 X
Track quality 99.9 %
Test CRC 54479D56
Copy CRC 54479D56
Track not present in AccurateRip database
Copy OK
Track 2
Filename C:\EAC Rips\Maria Schafer - To Know Love... (2018) [FLAC]\02 - The More I See You.wav
Pre-gap length 0:00:02.00
Peak level 98.8 %
Extraction speed 1.6 X
Track quality 99.9 %
Test CRC 34D50EA7
Copy CRC 34D50EA7
Track not present in AccurateRip database
Copy OK
Track 3
Filename C:\EAC Rips\Maria Schafer - To Know Love... (2018) [FLAC]\03 - Estrada Branca.wav
Pre-gap length 0:00:02.00
Peak level 98.8 %
Extraction speed 2.1 X
Track quality 100.0 %
Test CRC C2421C7E
Copy CRC C2421C7E
Track not present in AccurateRip database
Copy OK
Track 4
Filename C:\EAC Rips\Maria Schafer - To Know Love... (2018) [FLAC]\04 - I Fall in Love Too Easily.wav
Pre-gap length 0:00:02.00
Peak level 99.0 %
Extraction speed 2.4 X
Track quality 100.0 %
Test CRC 85CD4F6C
Copy CRC 85CD4F6C
Track not present in AccurateRip database
Copy OK
Track 5
Filename C:\EAC Rips\Maria Schafer - To Know Love... (2018) [FLAC]\05 - Bewitched, Bothered, and Bewildered.wav
Pre-gap length 0:00:02.00
Peak level 99.0 %
Extraction speed 2.2 X
Track quality 99.9 %
Test CRC 0A10C0F3
Copy CRC 0A10C0F3
Track not present in AccurateRip database
Copy OK
Track 6
Filename C:\EAC Rips\Maria Schafer - To Know Love... (2018) [FLAC]\06 - In Summer (Estate).wav
Pre-gap length 0:00:02.00
Peak level 99.0 %
Extraction speed 2.8 X
Track quality 100.0 %
Test CRC A1D52EEB
Copy CRC A1D52EEB
Track not present in AccurateRip database
Copy OK
Track 7
Filename C:\EAC Rips\Maria Schafer - To Know Love... (2018) [FLAC]\07 - You'd Be So Nice to Come Home To,Alone Together.wav
Pre-gap length 0:00:02.00
Peak level 99.8 %
Extraction speed 2.9 X
Track quality 100.0 %
Test CRC 5787162B
Copy CRC 5787162B
Track not present in AccurateRip database
Copy OK
Track 8
Filename C:\EAC Rips\Maria Schafer - To Know Love... (2018) [FLAC]\08 - Body and Soul.wav
Pre-gap length 0:00:02.00
Peak level 98.8 %
Extraction speed 3.2 X
Track quality 100.0 %
Test CRC 3CA60B0C
Copy CRC 3CA60B0C
Track not present in AccurateRip database
Copy OK
Track 9
Filename C:\EAC Rips\Maria Schafer - To Know Love... (2018) [FLAC]\09 - It Could Happen to You.wav
Pre-gap length 0:00:01.98
Peak level 99.0 %
Extraction speed 3.1 X
Track quality 100.0 %
Test CRC B18D1C3C
Copy CRC B18D1C3C
Track not present in AccurateRip database
Copy OK
Track 10
Filename C:\EAC Rips\Maria Schafer - To Know Love... (2018) [FLAC]\10 - Almost Like Being Love.wav
Pre-gap length 0:00:02.00
Peak level 98.9 %
Extraction speed 3.3 X
Track quality 100.0 %
Test CRC F6B969B5
Copy CRC F6B969B5
Track not present in AccurateRip database
Copy OK
Track 11
Filename C:\EAC Rips\Maria Schafer - To Know Love... (2018) [FLAC]\11 - Lush Life.wav
Pre-gap length 0:00:02.00
Peak level 98.8 %
Extraction speed 3.4 X
Track quality 100.0 %
Test CRC 0A75761F
Copy CRC 0A75761F
Track not present in AccurateRip database
Copy OK
Track 12
Filename C:\EAC Rips\Maria Schafer - To Know Love... (2018) [FLAC]\12 - 'S Wonderful,They Can't Take That Away from Me.wav
Pre-gap length 0:00:02.00
Peak level 84.9 %
Extraction speed 3.6 X
Track quality 100.0 %
Test CRC 74C8A8B7
Copy CRC 74C8A8B7
Track not present in AccurateRip database
Copy OK
None of the tracks are present in the AccurateRip database
No errors occurred
End of status report
---- CUETools DB Plugin V2.1.6
[CTDB TOCID: ReJ_YdQi5pgf7cx_iW_1jZOCStc-] found
Submit result: ReJ_YdQi5pgf7cx_iW_1jZOCStc- has been confirmed
Track | CTDB Status
1 | (1/1) Accurately ripped
2 | (1/1) Accurately ripped
3 | (1/1) Accurately ripped
4 | (1/1) Accurately ripped
5 | (1/1) Accurately ripped
6 | (1/1) Accurately ripped
7 | (1/1) Accurately ripped
8 | (1/1) Accurately ripped
9 | (1/1) Accurately ripped
10 | (1/1) Accurately ripped
11 | (1/1) Accurately ripped
12 | (1/1) Accurately ripped
==== Log checksum 915E5D35409821218DA1D481FD7F1E809F0050E44C81749DD9ABDA7DB8C5E2AF ====
 
Содержание индексной карты (.CUE)
REM GENRE Jazz
REM DATE 2018
REM DISCID 8C0DED0C
REM COMMENT "ExactAudioCopy v1.1"
CATALOG 0620969999032
PERFORMER "Maria Schafer"
TITLE "To Know Love..."
FILE "01 - You Don't Know What Love Is.wav" WAVE
TRACK 01 AUDIO
TITLE "You Don't Know What Love Is"
PERFORMER "Maria Schafer"
ISRC QZ8VQ1800001
INDEX 01 00:00:00
TRACK 02 AUDIO
TITLE "The More I See You"
PERFORMER "Maria Schafer"
ISRC QZ8VQ1800002
INDEX 00 04:27:44
FILE "02 - The More I See You.wav" WAVE
INDEX 01 00:00:00
TRACK 03 AUDIO
TITLE "Estrada Branca"
PERFORMER "Maria Schafer"
ISRC QZ8VQ1800003
INDEX 00 05:18:04
FILE "03 - Estrada Branca.wav" WAVE
INDEX 01 00:00:00
TRACK 04 AUDIO
TITLE "I Fall in Love Too Easily"
PERFORMER "Maria Schafer"
ISRC QZ8VQ1800004
INDEX 00 03:46:51
FILE "04 - I Fall in Love Too Easily.wav" WAVE
INDEX 01 00:00:00
TRACK 05 AUDIO
TITLE "Bewitched, Bothered, and Bewildered"
PERFORMER "Maria Schafer"
ISRC QZ8VQ1800005
INDEX 00 05:03:53
FILE "05 - Bewitched, Bothered, and Bewildered.wav" WAVE
INDEX 01 00:00:00
TRACK 06 AUDIO
TITLE "In Summer (Estate)"
PERFORMER "Maria Schafer"
ISRC QZ8VQ1800006
INDEX 00 06:33:53
FILE "06 - In Summer (Estate).wav" WAVE
INDEX 01 00:00:00
TRACK 07 AUDIO
TITLE "You'd Be So Nice to Come Home To/Alone Together"
PERFORMER "Maria Schafer"
ISRC QZ8VQ1800007
INDEX 00 05:44:32
FILE "07 - You'd Be So Nice to Come Home To,Alone Together.wav" WAVE
INDEX 01 00:00:00
TRACK 08 AUDIO
TITLE "Body and Soul"
PERFORMER "Maria Schafer"
ISRC QZ8VQ1800008
INDEX 00 04:33:47
FILE "08 - Body and Soul.wav" WAVE
INDEX 01 00:00:00
TRACK 09 AUDIO
TITLE "It Could Happen to You"
PERFORMER "Maria Schafer"
ISRC QZ8VQ1800009
INDEX 00 06:21:31
FILE "09 - It Could Happen to You.wav" WAVE
INDEX 01 00:00:00
TRACK 10 AUDIO
TITLE "Almost Like Being in Love"
PERFORMER "Maria Schafer"
ISRC QZ8VQ1800010
INDEX 00 03:24:25
FILE "10 - Almost Like Being in Love.wav" WAVE
INDEX 01 00:00:00
TRACK 11 AUDIO
TITLE "Lush Life"
PERFORMER "Maria Schafer"
ISRC QZ8VQ1800011
INDEX 00 04:24:56
FILE "11 - Lush Life.wav" WAVE
INDEX 01 00:00:00
TRACK 12 AUDIO
TITLE "'S Wonderful/They Can't Take That Away from Me"
PERFORMER "Maria Schafer"
ISRC QZ8VQ1800012
INDEX 00 04:33:02
FILE "12 - 'S Wonderful,They Can't Take That Away from Me.wav" WAVE
INDEX 01 00:00:00
 
Об альбоме (сборнике)
With a velveteen voice, charmingly straightforward delivery, and nuanced rhythmic sensibilities, versatile singer Maria Schafer returns from a full-time tour on the road with the world famous Glenn Miller Orchestra to present her debut album, "To Know Love..."
This beautifully crafted presentation from Schafer features her modern arrangements of jazz standards and Brazilian tunes with a core guitar trio and expands and contracts the instrumentation from there. In the most sparse charts, intimate tracks feature Schafer's voice with solely guitar or bass, moving on to a hauntingly nostalgic "In Summer" with bass and drums, and finally assuming the full guitar trio with trumpet solos for the closer. The album presents a wide range of moods and concepts for the casual listener as well as the avid jazz lover, all while highlighting the immaculately designed vocal talents of Schafer and her trio headed by Los Angeles guitarist, Shane Savala.
Скачивание доступно после регистрации!!
Приватный:
Нет (DHT включён)
Размер:
330.88 Мб (346,952,788 байт) » файлов: 19
Участники:
0 раздают, 0 качают (0 участников всего)
Внешние участники:
--- [ Обновить ]
07:07
2
Нет комментариев. Ваш будет первым!