Поиск

(Vocal Jazz, Bossa Nova) Astrud Gilberto — The Astrud Gilberto Album (1965) — 2008, FLAC (tracks+.cue), lossless

(Vocal Jazz, Bossa Nova) Astrud Gilberto — The Astrud Gilberto Album (1965) — 2008, FLAC (tracks+.cue), lossless
Треклист:
Astrud Gilberto — The Astrud Gilberto Album (1965)
Жанр: Vocal Jazz, Bossa Nova
Год выпуска диска: 2008
Label: Verve
Аудио кодек: FLAC
Тип рипа: tracks+.cue
Битрейт аудио: lossless
Продолжительность: 28:09
Трeклист:
01. Once I Loved (2:14)
02. Agua De Beber (2:19)
03. Meditation (2:42)
04. And Roses And Roses (2:36)
05. O Morro Nao Tem Vez (2:58)
06. How Insensitive (2:49)
07. Dindi (2:43)
08. Photograph (2:11)
09. Dreamer (2:03)
10. So Finha De Ser Com Voce (2:21)
11. All That's Left Is To Say Goodbye (3:12)
Сканы: 300 dpi
   Источник: what.cd
 
Отчет ЕАС
Exact Audio Copy V0.99 prebeta 4 from 23. January 2008
EAC extraction logfile from 11. December 2008, 22:39
Astrud Gilberto / The Astrud Gilberto Album
Used drive : PLEXTOR CD-R PREMIUM2 Adapter: 1 ID: 1
Read mode : Secure
Utilize accurate stream : Yes
Defeat audio cache : Yes
Make use of C2 pointers : No
Read offset correction : 30
Overread into Lead-In and Lead-Out : No
Fill up missing offset samples with silence : Yes
Delete leading and trailing silent blocks : No
Null samples used in CRC calculations : Yes
Used interface : Installed external ASPI interface
Gap handling : Appended to previous track
Used output format : User Defined Encoder
Selected bitrate : 32 kBit/s
Quality : High
Add ID3 tag : No
Command line compressor : C:\Programmi\FLAC\flac.exe
Additional command line options : -8 -V -T "ARTIST=%a" -T "TITLE=%t" -T "ALBUM=%g" -T "DATE=%y" -T "TRACKNUMBER=%n" -T "GENRE=%m" -T "COMMENT=EAC FLAC -8" %s
TOC of the extracted CD
Track | Start | Length | Start sector | End sector
---------------------------------------------------------
1 | 0:00.00 | 2:13.43 | 0 | 10017
2 | 2:13.43 | 2:19.19 | 10018 | 20461
3 | 4:32.62 | 2:41.68 | 20462 | 32604
4 | 7:14.55 | 2:36.10 | 32605 | 44314
5 | 9:50.65 | 2:58.14 | 44315 | 57678
6 | 12:49.04 | 2:49.14 | 57679 | 70367
7 | 15:38.18 | 2:43.32 | 70368 | 82624
8 | 18:21.50 | 2:11.09 | 82625 | 92458
9 | 20:32.59 | 2:02.58 | 92459 | 101666
10 | 22:35.42 | 2:21.32 | 101667 | 112273
11 | 24:56.74 | 3:11.51 | 112274 | 126649
Track 1
Filename D:\My Rip\01 - Once I Loved.wav
Pre-gap length 0:00:02.00
Peak level 95.1 %
Track quality 100.0 %
Test CRC 0ED65A39
Copy CRC 0ED65A39
Track not present in AccurateRip database
Copy OK
Track 2
Filename D:\My Rip\02 - Agua De Beber.wav
Peak level 98.4 %
Track quality 100.0 %
Test CRC EA9ED5FE
Copy CRC EA9ED5FE
Track not present in AccurateRip database
Copy OK
Track 3
Filename D:\My Rip\03 - Meditation.wav
Peak level 98.1 %
Track quality 100.0 %
Test CRC C4F0D733
Copy CRC C4F0D733
Track not present in AccurateRip database
Copy OK
Track 4
Filename D:\My Rip\04 - And Roses And Roses.wav
Peak level 98.1 %
Track quality 100.0 %
Test CRC F24A3513
Copy CRC F24A3513
Track not present in AccurateRip database
Copy OK
Track 5
Filename D:\My Rip\05 - O Morro (Noo Tem Vez).wav
Peak level 98.1 %
Track quality 100.0 %
Test CRC 42CEB321
Copy CRC 42CEB321
Track not present in AccurateRip database
Copy OK
Track 6
Filename D:\My Rip\06 - How Insensitive.wav
Peak level 98.1 %
Track quality 100.0 %
Test CRC 83359A86
Copy CRC 83359A86
Track not present in AccurateRip database
Copy OK
Track 7
Filename D:\My Rip\07 - Dindi.wav
Peak level 89.3 %
Track quality 100.0 %
Test CRC ADA527D1
Copy CRC ADA527D1
Track not present in AccurateRip database
Copy OK
Track 8
Filename D:\My Rip\08 - Photograph.wav
Peak level 98.1 %
Track quality 100.0 %
Test CRC AC8A0A41
Copy CRC AC8A0A41
Track not present in AccurateRip database
Copy OK
Track 9
Filename D:\My Rip\09 - Dreamer.wav
Peak level 98.0 %
Track quality 100.0 %
Test CRC 84CA900C
Copy CRC 84CA900C
Track not present in AccurateRip database
Copy OK
Track 10
Filename D:\My Rip\10 - So Tinha De Ser Com Voce.wav
Peak level 98.7 %
Track quality 99.9 %
Test CRC 4B9776A6
Copy CRC 4B9776A6
Track not present in AccurateRip database
Copy OK
Track 11
Filename D:\My Rip\11 - All That's Left Is To Say Goodbye.wav
Peak level 98.1 %
Track quality 100.0 %
Test CRC B344704C
Copy CRC B344704C
Track not present in AccurateRip database
Copy OK
None of the tracks are present in the AccurateRip database
No errors occurred
End of status report
  :arrow: Мои раздачи на трекере
Download available for power users only.
10:42
244
Нет комментариев. Ваш будет первым!