Поиск

(Nu-Bossa, Brazilian Jazz) Vinicius Cantuaria - Tucuma (ft. Bill Frisell, Laurie Anderson, Joey Baron, Arto Lindsay) - 1999, FLAC (image+.cue), lossless

(Nu-Bossa, Brazilian Jazz) Vinicius Cantuaria - Tucuma (ft. Bill Frisell, Laurie Anderson, Joey Baron, Arto Lindsay) - 1999, FLAC (image+.cue), lossless
Треклист:
Vinicius Cantuaria - Tucuma (ft. Bill Frisell, Laurie Anderson, Joey Baron, Arto Lindsay)
Жанр: Nu-Bossa, Brazilian Jazz
Год выпуска диска: 1999
Производитель диска: Россия
Аудио кодек: FLAC
Тип рипа: image+.cue
Битрейт аудио: lossless
Продолжительность: 46:41
Трэклист:
1. Amor Brasileiro (Cantuaria) - 5:07
2. Maravilhar (Cantuaria, Lindsay) - 3:46
3. Sanfona (Cantuaria, Lindsay) - 3:41
4. Aracaju (Cantuaria, Improta, Veloso) - 5:17
5. Aviso Ao Navegante (Cantuaria) - 3:34
6. Pra Gil (Cantuaria) - 4:41
7. Tucuma (Cantuaria) - 6:20
8. Retirante (Cantuaria) - 4:09
9. Igarape (Cantuaria) - 2:03
10. Joia (Veloso) - 3:47
11. Vivo Isolado Do Mundo (Lopes) - 3:57
Доп. информация:
Исполнители:
Vinicius Cantuaria - Vocals, Acoustic and Electric Guitars, Percussion, Piano, Samples, Indian Wood Flute, Drums, Keyboards
Bill Frisell - Electric Guitar
Michael Leonhart - Trumpet
Joey Baron - Drums
Mauro Refosco - Percussion
Peter Apfelbaum - Tenor Sax
Erik Friedlander - Cello
Steve Cohen - Bass
Davi Vieira - Percussion
Marivaldo Dos Santos - Percussion
Sean Lennon - Bass
Josh Roseman - Trombone
Joyce Hammann - Violin
Mark Feldman - Violin
Lois Martin - Viola
Laurie Anderson - Vocals, Violin
Nana Vasconcelos - Berimbau, Panela
Arto Lindsay - Electric Guitar
 
EAC Report
Exact Audio Copy V0.99 prebeta 4 from 23. January 2008
Отчёт EAC об извлечении, выполненном 6. января 2010, 0:14
Vinicius Cantuaria / Tucuma
Дисковод: ASUS DRW-1814BLT Adapter: 2 ID: 0
Режим чтения : Достоверность
Использование точного потока : Да
Отключение кэша аудио : Да
Использование указателей C2 : Нет
Коррекция смещения при чтении : 6
Способность читать области Lead-in и Lead-out : Нет
Заполнение пропущенных сэмплов тишиной : Да
Удаление блоков с тишиной в начале и конце : Нет
При вычислениях CRC использовались нулевые сэмплы : Да
Интерфейс : Встроенный Win32-интерфейс для Win NT/2000
Выходной формат : Пользовательский кодировщик
Выбранный битрейт : 256 kBit/s
Качество : Высокий
Добавление ID3-тэга : Нет
Утилита сжатия : D:\Program Files\Exact Audio Copy\Flac\flac.exe
Дополнительные параметры : -8 --delete-input-file -o "D:\CDImage.flac" -V %s
TOC извлечённого CD
Трек | Старт | Длительность | Начальный сектор | Конечный сектор
---------------------------------------------------------------------
1 | 0:00.00 | 5:08.07 | 0 | 23106
2 | 5:08.07 | 3:48.23 | 23107 | 40229
3 | 8:56.30 | 3:43.30 | 40230 | 56984
4 | 12:39.60 | 5:18.50 | 56985 | 80884
5 | 17:58.35 | 3:37.07 | 80885 | 97166
6 | 21:35.42 | 4:43.15 | 97167 | 118406
7 | 26:18.57 | 6:21.30 | 118407 | 147011
8 | 32:40.12 | 4:09.68 | 147012 | 165754
9 | 36:50.05 | 2:04.62 | 165755 | 175116
10 | 38:54.67 | 3:48.45 | 175117 | 192261
11 | 42:43.37 | 3:57.43 | 192262 | 210079
Характеристики диапазона извлечения и сообщения об ошибках
Выбранный диапазон
Имя файла D:\Vinicius Cantuaria - Tucuma.wav
Пиковый уровень 99.9 %
Качество диапазона 100.0 %
CRC теста FE1CE2C5
CRC копии FE1CE2C5
Копирование... OK
Ошибок не произошло
AccurateRip: сводка
Трек 1 точность не определена (достоверность 4) [2E4CC920], AccurateRip вернул [01E0EE75]
Трек 2 точность не определена (достоверность 4) [5282FD6B], AccurateRip вернул [C865F97C]
Трек 3 точность не определена (достоверность 4) [A998F45D], AccurateRip вернул [DC927ADA]
Трек 4 точность не определена (достоверность 4) [12716817], AccurateRip вернул [B3D48196]
Трек 5 точность не определена (достоверность 3) [E0FAC8AB], AccurateRip вернул [0E3502BE]
Трек 6 точность не определена (достоверность 4) [DA5994E3], AccurateRip вернул [8356B992]
Трек 7 точность не определена (достоверность 3) [B45328DC], AccurateRip вернул [B91119AA]
Трек 8 точность не определена (достоверность 3) [676A06E9], AccurateRip вернул [9778E898]
Трек 9 точность не определена (достоверность 3) [DDFDBE27], AccurateRip вернул [AE35C17F]
Трек 10 точность не определена (достоверность 3) [DB6BE351], AccurateRip вернул [BE46C14B]
Трек 11 точность не определена (достоверность 3) [0F728A43], AccurateRip вернул [BD870539]
Ни один трек не прошёл проверки на точность
В вашей базе может быть иной вариант штамповки диска
Конец отчёта
По всем вопросам пишите личное сообщение пользователю M0p94ok.
10:41
311
Нет комментариев. Ваш будет первым!