Поиск

(Vocal Jazz, Bossa Nova) Astrud Gilberto — September 17, 1969 (1969) — 2007, FLAC (tracks+.cue), lossless

Astrud Gilberto — September 17, 1969 (1969)
Жанр: Vocal Jazz, Bossa Nova
Год выпуска диска: 2007
Label: Rev-Ola
Аудио кодек: FLAC
Тип рипа: tracks+.cue
Битрейт аудио: lossless
Продолжительность: 42:09
Трeклист:
01. Beginnings (8:08)
02. Holiday (3:13)
03. Here, There And Everywhere (2:26)
04. Light My Fire (2:57)
05. Let Go (Canto De Ossanha) (3:07)
06. Let's Have The Morning After (Instead Of The Night Before) (4:10)
07. Think Of Rain (2:49)
08. A Million Miles Away Behind The Door (2:29)
09. Love Is Stronger Far Than We (3:45)
10. Don't Leave Me, Baby (2:33)
11. Summer Sweet Part 1, Part 2 to be continued... (6:32)
Сканы: 300 dpi
   Источник: what.cd
 
Отчет ЕАС
Exact Audio Copy V0.99 prebeta 4 from 23. January 2008
EAC extraction logfile from 5. September 2008, 13:51
Astrud Gilberto / September 17
Used drive : ASUS DRW-1608P3S Adapter: 1 ID: 0
Read mode : Secure
Utilize accurate stream : Yes
Defeat audio cache : Yes
Make use of C2 pointers : No
Read offset correction : 48
Overread into Lead-In and Lead-Out : No
Fill up missing offset samples with silence : Yes
Delete leading and trailing silent blocks : No
Null samples used in CRC calculations : Yes
Used interface : Installed external ASPI interface
Gap handling : Appended to previous track
Used output format : Internal WAV Routines
Sample format : 44.100 Hz; 16 Bit; Stereo
TOC of the extracted CD
Track | Start | Length | Start sector | End sector
---------------------------------------------------------
1 | 0:00.00 | 8:08.36 | 0 | 36635
2 | 8:08.36 | 3:12.60 | 36636 | 51095
3 | 11:21.21 | 2:26.07 | 51096 | 62052
4 | 13:47.28 | 2:57.07 | 62053 | 75334
5 | 16:44.35 | 3:07.25 | 75335 | 89384
6 | 19:51.60 | 4:09.74 | 89385 | 108133
7 | 24:01.59 | 2:48.40 | 108134 | 120773
8 | 26:50.24 | 2:29.30 | 120774 | 131978
9 | 29:19.54 | 3:44.60 | 131979 | 148838
10 | 33:04.39 | 2:32.67 | 148839 | 160305
11 | 35:37.31 | 6:31.62 | 160306 | 189692
Track 1
Filename C:\Documents and Settings\Ian\Desktop\Astrud Gilberto - September 17 (1969) [FLAC]\01 - Beginnings.wav
Pre-gap length 0:00:02.00
Peak level 99.9 %
Track quality 99.9 %
Test CRC 78DE1F97
Copy CRC 78DE1F97
Copy OK
Track 2
Filename C:\Documents and Settings\Ian\Desktop\Astrud Gilberto - September 17 (1969) [FLAC]\02 - Holiday.wav
Pre-gap length 0:00:01.73
Peak level 99.9 %
Track quality 100.0 %
Test CRC 1752C648
Copy CRC 1752C648
Copy OK
Track 3
Filename C:\Documents and Settings\Ian\Desktop\Astrud Gilberto - September 17 (1969) [FLAC]\03 - Here, There and Everywhere.wav
Pre-gap length 0:00:01.84
Peak level 99.9 %
Track quality 99.9 %
Test CRC 4476B354
Copy CRC 4476B354
Copy OK
Track 4
Filename C:\Documents and Settings\Ian\Desktop\Astrud Gilberto - September 17 (1969) [FLAC]\04 - Light My Fire.wav
Pre-gap length 0:00:01.20
Peak level 99.9 %
Track quality 100.0 %
Test CRC 1937C7C5
Copy CRC 1937C7C5
Copy OK
Track 5
Filename C:\Documents and Settings\Ian\Desktop\Astrud Gilberto - September 17 (1969) [FLAC]\05 - Let Go.wav
Pre-gap length 0:00:02.10
Peak level 99.9 %
Track quality 100.0 %
Test CRC C1535D49
Copy CRC C1535D49
Copy OK
Track 6
Filename C:\Documents and Settings\Ian\Desktop\Astrud Gilberto - September 17 (1969) [FLAC]\06 - Let's Have the Morning After (Instead of the Night Before).wav
Pre-gap length 0:00:01.92
Peak level 99.9 %
Track quality 100.0 %
Test CRC 91E59C6A
Copy CRC 91E59C6A
Copy OK
Track 7
Filename C:\Documents and Settings\Ian\Desktop\Astrud Gilberto - September 17 (1969) [FLAC]\07 - Think of Rain.wav
Pre-gap length 0:00:02.04
Peak level 99.9 %
Track quality 100.0 %
Test CRC AEE1064D
Copy CRC AEE1064D
Copy OK
Track 8
Filename C:\Documents and Settings\Ian\Desktop\Astrud Gilberto - September 17 (1969) [FLAC]\08 - A Million Miles Away Behind the Door.wav
Pre-gap length 0:00:01.92
Peak level 78.8 %
Track quality 99.9 %
Test CRC 1ECD2F77
Copy CRC 1ECD2F77
Copy OK
Track 9
Filename C:\Documents and Settings\Ian\Desktop\Astrud Gilberto - September 17 (1969) [FLAC]\09 - Love Is Stronger Far Than We.wav
Pre-gap length 0:00:02.10
Peak level 93.9 %
Track quality 99.9 %
Test CRC A9B1983C
Copy CRC A9B1983C
Copy OK
Track 10
Filename C:\Documents and Settings\Ian\Desktop\Astrud Gilberto - September 17 (1969) [FLAC]\10 - Don't Leave Me Baby.wav
Pre-gap length 0:00:01.76
Peak level 99.9 %
Track quality 100.0 %
Test CRC 4555CADB
Copy CRC 4555CADB
Copy OK
Track 11
Filename C:\Documents and Settings\Ian\Desktop\Astrud Gilberto - September 17 (1969) [FLAC]\11 - Summer Sweet, Pts. 1-2 To Be Continued.wav
Pre-gap length 0:00:01.85
Peak level 99.9 %
Track quality 99.9 %
Test CRC 267C7EEC
Copy CRC 267C7EEC
Copy OK
No errors occurred
End of status report
  :arrow: Мои раздачи на трекере
11:42
327
Нет комментариев. Ваш будет первым!