Поиск

(Vocal group, chamber jazz, ethnic jazz) [CD] Borago - Borago - 2006, FLAC (tracks+.cue), lossless

(Vocal group, chamber jazz, ethnic jazz) [CD] Borago - Borago - 2006, FLAC (tracks+.cue), lossless
Треклист:

Borago - Borago - 2006
Жанр: Vocal group, chamber jazz, ethnic jazz
Носитель: CD
Страна-производитель диска (релиза): Hungary
Год издания: 2006
Издатель (лейбл): Self released
Номер по каталогу: No number
Страна исполнителя (группы): Hungary
Аудиокодек: FLAC (*.flac)
Тип рипа: tracks+.cue
Битрейт аудио: lossless
Продолжительность: 48:29
Источник (релизер): Simurg (e-rock.ru)
Наличие сканов в содержимом раздачи: да
Треклист:
01. Megállj, megállj
02. Megrakják a tüzet / Kerek erdő
03. Ne csicseréssz
04. Nem arról hajnallik
05. Sej, búra / Ne bánd, édes virágom
06. Citrusfa
07. Engem anyám úgy szeretett
08. Röpülj páva / Béreslegény / A bolhási kertek alatt
09. Kicsiny a hordócska / Apró murok /Fekete tyúk Эта раздача может быть поглощена собственным рипом Lossless Group. Мы предпочитаем оригинальные рипы.
 
Лог создания рипа
Exact Audio Copy V1.0 beta 3 from 29. August 2011
EAC extraction logfile from 28. August 2014, 1:57
Borago / Borago
Used drive : ATAPI iHAS124 W Adapter: 0 ID: 0
Read mode : Secure
Utilize accurate stream : Yes
Defeat audio cache : Yes
Make use of C2 pointers : No
Read offset correction : 48
Overread into Lead-In and Lead-Out : No
Fill up missing offset samples with silence : Yes
Delete leading and trailing silent blocks : No
Null samples used in CRC calculations : Yes
Used interface : Native Win32 interface for Win NT & 2000
Gap handling : Appended to previous track
Used output format : User Defined Encoder
Selected bitrate : 896 kBit/s
Quality : High
Add ID3 tag : No
Command line compressor : D:\Program Files\Exact Audio Copy\Flac\flac.exe
Additional command line options : -V -8 -T "Genre=%genre%" -T "Artist=%artist%" -T "Title=%title%" -T "Album=%albumtitle%" -T "Date=%year%" -T "Tracknumber=%tracknr%" -T "Comment=%comment%" %source%
TOC of the extracted CD
Track | Start | Length | Start sector | End sector
---------------------------------------------------------
1 | 0:00.00 | 3:40.40 | 0 | 16539
2 | 3:40.40 | 4:56.17 | 16540 | 38756
3 | 8:36.57 | 4:51.08 | 38757 | 60589
4 | 13:27.65 | 5:20.24 | 60590 | 84613
5 | 18:48.14 | 13:03.07 | 84614 | 143345
6 | 31:51.21 | 2:50.38 | 143346 | 156133
7 | 34:41.59 | 6:05.17 | 156134 | 183525
8 | 40:47.01 | 4:28.26 | 183526 | 203651
9 | 45:15.27 | 3:14.16 | 203652 | 218217
Track 1
Filename D:\EAC\Borago\2006 Borago @FLAC\01. Megállj, megállj.wav
Pre-gap length 0:00:02.00
Peak level 97.7 %
Extraction speed 4.9 X
Track quality 100.0 %
Test CRC C78E3E2F
Copy CRC C78E3E2F
Track not present in AccurateRip database
Copy OK
Track 2
Filename D:\EAC\Borago\2006 Borago @FLAC\02. Megrakják a tüzet , Kerek erdő.wav
Peak level 97.7 %
Extraction speed 5.6 X
Track quality 100.0 %
Test CRC 1BD48401
Copy CRC 1BD48401
Track not present in AccurateRip database
Copy OK
Track 3
Filename D:\EAC\Borago\2006 Borago @FLAC\03. Ne csicseréssz.wav
Peak level 97.7 %
Extraction speed 6.1 X
Track quality 100.0 %
Test CRC 98CE36A1
Copy CRC 98CE36A1
Track not present in AccurateRip database
Copy OK
Track 4
Filename D:\EAC\Borago\2006 Borago @FLAC\04. Nem arról hajnallik.wav
Peak level 97.7 %
Extraction speed 6.6 X
Track quality 100.0 %
Test CRC 9353BDAB
Copy CRC 9353BDAB
Track not present in AccurateRip database
Copy OK
Track 5
Filename D:\EAC\Borago\2006 Borago @FLAC\05. Sej, búra , Ne bánd, édes virágom.wav
Peak level 97.7 %
Extraction speed 7.9 X
Track quality 100.0 %
Test CRC D110EC49
Copy CRC D110EC49
Track not present in AccurateRip database
Copy OK
Track 6
Filename D:\EAC\Borago\2006 Borago @FLAC\06. Citrusfa.wav
Peak level 97.7 %
Extraction speed 7.4 X
Track quality 100.0 %
Test CRC ADE153A8
Copy CRC ADE153A8
Track not present in AccurateRip database
Copy OK
Track 7
Filename D:\EAC\Borago\2006 Borago @FLAC\07. Engem anyám úgy szeretett.wav
Peak level 97.7 %
Extraction speed 8.5 X
Track quality 100.0 %
Test CRC F42AB598
Copy CRC F42AB598
Track not present in AccurateRip database
Copy OK
Track 8
Filename D:\EAC\Borago\2006 Borago @FLAC\08. Röpülj páva , Béreslegény , A bolhási kertek alatt.wav
Peak level 97.7 %
Extraction speed 8.5 X
Track quality 100.0 %
Test CRC A9147968
Copy CRC A9147968
Track not present in AccurateRip database
Copy OK
Track 9
Filename D:\EAC\Borago\2006 Borago @FLAC\09. Kicsiny a hordócska , Apró murok , Fekete tyúk.wav
Peak level 97.7 %
Extraction speed 5.3 X
Track quality 99.9 %
Test CRC 45D547F1
Copy CRC 45D547F1
Track not present in AccurateRip database
Copy OK
None of the tracks are present in the AccurateRip database
No errors occurred
End of status report
---- CUETools DB Plugin V2.1.3
[CTDB TOCID: nVnKxkYl06Enx.Ki.xbxdvgCqSs-] disk not present in database, Submit result: nVnKxkYl06Enx.Ki.xbxdvgCqSs- has been uploaded
 
Содержание индексной карты (.CUE)
REM GENRE Folk
REM DATE 2006
REM DISCID 6B0B5D09
REM COMMENT "ExactAudioCopy v1.0b3"
PERFORMER "Borago"
TITLE "Borago"
FILE "01. Megállj, megállj.wav" WAVE
TRACK 01 AUDIO
TITLE "Megállj, megállj"
PERFORMER "Borago"
INDEX 01 00:00:00
FILE "02. Megrakják a tüzet , Kerek erdő.wav" WAVE
TRACK 02 AUDIO
TITLE "Megrakják a tüzet / Kerek erdő"
PERFORMER "Borago"
INDEX 01 00:00:00
FILE "03. Ne csicseréssz.wav" WAVE
TRACK 03 AUDIO
TITLE "Ne csicseréssz"
PERFORMER "Borago"
INDEX 01 00:00:00
FILE "04. Nem arról hajnallik.wav" WAVE
TRACK 04 AUDIO
TITLE "Nem arról hajnallik"
PERFORMER "Borago"
INDEX 01 00:00:00
FILE "05. Sej, búra , Ne bánd, édes virágom.wav" WAVE
TRACK 05 AUDIO
TITLE "Sej, búra / Ne bánd, édes virágom"
PERFORMER "Borago"
INDEX 01 00:00:00
FILE "06. Citrusfa.wav" WAVE
TRACK 06 AUDIO
TITLE "Citrusfa"
PERFORMER "Borago"
INDEX 01 00:00:00
FILE "07. Engem anyám úgy szeretett.wav" WAVE
TRACK 07 AUDIO
TITLE "Engem anyám úgy szeretett"
PERFORMER "Borago"
INDEX 01 00:00:00
FILE "08. Röpülj páva , Béreslegény , A bolhási kertek alatt.wav" WAVE
TRACK 08 AUDIO
TITLE "Röpülj páva / Béreslegény / A bolhási kertek alatt"
PERFORMER "Borago"
INDEX 01 00:00:00
FILE "09. Kicsiny a hordócska , Apró murok , Fekete tyúk.wav" WAVE
TRACK 09 AUDIO
TITLE "Kicsiny a hordócska / Apró murok / Fekete tyúk"
PERFORMER "Borago"
INDEX 01 00:00:00
 
Лог проверки качества


 
Состав
Hornai Anita - fuvola, furulya, ének / vocal, flutes, doromb
Warnusz Zsuzsa - zongora, ének / piano, keyboards, vocal
Bizják Gábor - kürt, ének / fremch horn, vocal
22:24
262
Нет комментариев. Ваш будет первым!