Поиск

(Ethnic Jazz, Jazz Rock) [CD] Jazz Work Shop (Sadnat Ha-Jazz) - Mezare Israel Yekabtzenu - 1971 (2005, Skyton), FLAC (tracks+.cue), lossless

(Ethnic Jazz, Jazz Rock) [CD] Jazz Work Shop (Sadnat Ha-Jazz) - Mezare Israel Yekabtzenu - 1971 (2005, Skyton), FLAC (tracks+.cue), lossless
Треклист:



Jazz Work Shop (Sadnat Ha-Jazz) - Mezare Israel Yekabtzenu - 1971 (2015)
Жанр: Ethnic Jazz, Jazz Rock
Носитель: CD
Страна-производитель диска (релиза): Israel
Год издания: 1971 (LP)
Год переиздания: 2015 (CD)
Издатель (лейбл): Skyton
Номер по каталогу: CDS 31028
Страна исполнителя (группы): Israel
Аудиокодек: FLAC (*.flac)
Тип рипа: tracks .cue
Битрейт аудио: lossless
Продолжительность: 40:59
Источник (релизер): Моя коллекция, мой рип
Наличие сканов в содержимом раздачи: да
Треклист:
1. Mezare Israel Yekabtzenu (7:42) - Amitay Ne'eman
2. Rabbi Elimelech (6:зо) - Trad. Jewish
3. Sha Shtil Harabbi Ba (5:30) - Trad. Jewish
4. 'Ala Dal'ona (6:41) - Trad. Arabic
5. Ken Yovdu Kol Oyvecha (7:07) - Urie Give'on
6. Hamichtav (6:01) - Trad. Armenic
 
Лог создания рипа
Exact Audio Copy V1.1 from 23. June 2015
EAC extraction logfile from 6. November 2016, 15:46
Jazz Work Shop / Mezare Israel Yekabtzenu
Used drive : HL-DT-STDVDRAM GH24NSB0 Adapter: 1 ID: 0
Read mode : Secure
Utilize accurate stream : Yes
Defeat audio cache : Yes
Make use of C2 pointers : No
Read offset correction : 6
Overread into Lead-In and Lead-Out : No
Fill up missing offset samples with silence : Yes
Delete leading and trailing silent blocks : No
Null samples used in CRC calculations : Yes
Used interface : Native Win32 interface for Win NT & 2000
Gap handling : Appended to previous track
Used output format : User Defined Encoder
Selected bitrate : 1024 kBit/s
Quality : High
Add ID3 tag : No
Command line compressor : C:\Program Files (x86)\Exact Audio Copy\FLAC\FLAC.EXE
Additional command line options : -V -8 -T "ARTIST=%artist%" -T "TITLE=%title%" -T "ALBUM=%albumtitle%" -T "DATE=%year%" -T "TRACKNUMBER=%tracknr%" -T "GENRE=%genre%" -T "COMMENT=ripped by Musicgate for СПАМ %source% -o Юst%
TOC of the extracted CD
Track | Start | Length | Start sector | End sector
---------------------------------------------------------
1 | 0:00.00 | 7:48.50 | 0 | 35149
2 | 7:48.50 | 7:03.36 | 35150 | 66910
3 | 14:52.11 | 5:44.42 | 66911 | 92752
4 | 20:36.53 | 6:50.43 | 92753 | 123545
5 | 27:27.21 | 7:20.21 | 123546 | 156566
6 | 34:47.42 | 6:11.46 | 156567 | 184437
Track 1
Filename D:\Musicgate for СПАМ Work Shop - Mezare Israel Yekabtzenu - 1971 (2015 Visart)\01 - Mezare Israel Yekabtzenu.wav
Pre-gap length 0:00:02.00
Peak level 100.0 %
Extraction speed 1.1 X
Track quality 100.0 %
Test CRC C288D27E
Copy CRC C288D27E
Track not present in AccurateRip database
Copy OK
Track 2
Filename D:\Musicgate for СПАМ Work Shop - Mezare Israel Yekabtzenu - 1971 (2015 Visart)\02 - Rabbi Elimelech.wav
Pre-gap length 0:00:02.00
Peak level 100.0 %
Extraction speed 1.4 X
Track quality 100.0 %
Test CRC FB8CB614
Copy CRC FB8CB614
Track not present in AccurateRip database
Copy OK
Track 3
Filename D:\Musicgate for СПАМ Work Shop - Mezare Israel Yekabtzenu - 1971 (2015 Visart)\03 - Sha Shtil Harabbi Ba.wav
Pre-gap length 0:00:02.00
Peak level 100.0 %
Extraction speed 1.5 X
Track quality 100.0 %
Test CRC F2D3C98F
Copy CRC F2D3C98F
Track not present in AccurateRip database
Copy OK
Track 4
Filename D:\Musicgate for СПАМ Work Shop - Mezare Israel Yekabtzenu - 1971 (2015 Visart)\04 - Ala Dal'ona.wav
Pre-gap length 0:00:02.00
Peak level 100.0 %
Extraction speed 1.7 X
Track quality 100.0 %
Test CRC D643874E
Copy CRC D643874E
Track not present in AccurateRip database
Copy OK
Track 5
Filename D:\Musicgate for СПАМ Work Shop - Mezare Israel Yekabtzenu - 1971 (2015 Visart)\05 - Ken Yovdu Kol Oyvecha.wav
Pre-gap length 0:00:02.00
Peak level 100.0 %
Extraction speed 1.8 X
Track quality 100.0 %
Test CRC CDAC4FCE
Copy CRC CDAC4FCE
Track not present in AccurateRip database
Copy OK
Track 6
Filename D:\Musicgate for СПАМ Work Shop - Mezare Israel Yekabtzenu - 1971 (2015 Visart)\06 - Hamichtav.wav
Pre-gap length 0:00:02.00
Peak level 100.0 %
Extraction speed 1.9 X
Track quality 100.0 %
Test CRC 9DFE8F63
Copy CRC 9DFE8F63
Track not present in AccurateRip database
Copy OK
None of the tracks are present in the AccurateRip database
No errors occurred
End of status report
==== Log checksum 5346796592D5FF385959A8024176A40A49E260A80CF49868E27C680C065F2A6E ====
 
Содержание индексной карты (.CUE)
REM GENRE "Jazz Israeli"
REM DATE 2015
REM DISCID 57099B06
REM COMMENT "ExactAudioCopy v1.1"
PERFORMER "Jazz Work Shop"
TITLE "Mezare Israel Yekabtzenu"
FILE "01 - Mezare Israel Yekabtzenu.wav" WAVE
TRACK 01 AUDIO
TITLE "Mezare Israel Yekabtzenu"
PERFORMER "Jazz Work Shop"
FLAGS DCP
INDEX 01 00:00:00
TRACK 02 AUDIO
TITLE "Rabbi Elimelech"
PERFORMER "Jazz Work Shop"
FLAGS DCP
INDEX 00 07:46:50
FILE "02 - Rabbi Elimelech.wav" WAVE
INDEX 01 00:00:00
TRACK 03 AUDIO
TITLE "Sha Shtil Harabbi Ba"
PERFORMER "Jazz Work Shop"
FLAGS DCP
INDEX 00 07:01:36
FILE "03 - Sha Shtil Harabbi Ba.wav" WAVE
INDEX 01 00:00:00
TRACK 04 AUDIO
TITLE "Ala Dal'ona"
PERFORMER "Jazz Work Shop"
FLAGS DCP
INDEX 00 05:42:42
FILE "04 - Ala Dal'ona.wav" WAVE
INDEX 01 00:00:00
TRACK 05 AUDIO
TITLE "Ken Yovdu Kol Oyvecha"
PERFORMER "Jazz Work Shop"
FLAGS DCP
INDEX 00 06:48:43
FILE "05 - Ken Yovdu Kol Oyvecha.wav" WAVE
INDEX 01 00:00:00
TRACK 06 AUDIO
TITLE "Hamichtav"
PERFORMER "Jazz Work Shop"
FLAGS DCP
INDEX 00 07:18:21
FILE "06 - Hamichtav.wav" WAVE
INDEX 01 00:00:00
 
Лог проверки качества


 
Матрица


 
Состав
Albert Piammenta, Alt & Soprano Sax
Dan Gottfried, Piano
Teddy Kling, Bass
Jeny Grabel, Drums
22:23
280
Нет комментариев. Ваш будет первым!