Поиск

(Ethnic Fusion, Hebrew Groove, Jazz Brass Band) [CD] Kivsus - Kivsus - 2015, FLAC (tracks+.cue), lossless

(Ethnic Fusion, Hebrew Groove, Jazz Brass Band) [CD] Kivsus - Kivsus - 2015, FLAC (tracks+.cue), lossless
Треклист:



Kivsus - Kivsus - 2015 (Self Released)
Жанр: Ethnic Fusion, Hebrew Groove, Jazz Brass Band
Носитель: CD
Страна-производитель диска (релиза): Israel
Год издания: 2015
Издатель (лейбл): Self Released
Номер по каталогу: No number
Страна исполнителя (группы): Israel
Аудиокодек: FLAC (*.flac)
Тип рипа: tracks+.cue
Битрейт аудио: lossless
Продолжительность: 53:57
Источник (релизер): Моя коллекция, мой рип
Наличие сканов в содержимом раздачи: да
Треклист:
1. יגדל - Вырастет (08:41)
2. ידיד נפש - Задушевный друг (04:52)
3. שין - (буква) Шин (06:19)
4. צור משלו - Его крепость (05:44)
5. איכה - плач Иеремии (08:36)
6. מיסטר יוניורס - Мистер Юниверс (07:49)
7. אנעים זמירות - Гимны (ft. Daniel Zamir) (06:21)
8. לונג סטריט - Лонг Стрит (Long Street). (05:13)
 
Лог создания рипа
Exact Audio Copy V1.3 from 2. September 2016
EAC extraction logfile from 29. January 2017, 19:10
כבשוש / כבשוש
Used drive : HL-DT-STDVDRAM GH24NSB0 Adapter: 1 ID: 0
Read mode : Secure
Utilize accurate stream : Yes
Defeat audio cache : Yes
Make use of C2 pointers : No
Read offset correction : 6
Overread into Lead-In and Lead-Out : No
Fill up missing offset samples with silence : Yes
Delete leading and trailing silent blocks : No
Null samples used in CRC calculations : Yes
Used interface : Native Win32 interface for Win NT & 2000
Gap handling : Appended to previous track
Used output format : User Defined Encoder
Selected bitrate : 1024 kBit/s
Quality : High
Add ID3 tag : No
Command line compressor : C:\Program Files (x86)\Exact Audio Copy\FLAC\FLAC.EXE
Additional command line options : -V -8 -T "Genre=%genre%" -T "Artist=%artist%" -T "Title=%title%" -T "Album=%albumtitle%" -T "Date=%year%" -T "Tracknumber=%tracknr%" -T "Comment=%comment%" %source%
TOC of the extracted CD
Track | Start | Length | Start sector | End sector
---------------------------------------------------------
1 | 0:00.00 | 8:43.52 | 0 | 39276
2 | 8:43.52 | 4:55.07 | 39277 | 61408
3 | 13:38.59 | 6:21.52 | 61409 | 90035
4 | 20:00.36 | 5:45.51 | 90036 | 115961
5 | 25:46.12 | 8:39.54 | 115962 | 154940
6 | 34:25.66 | 7:52.01 | 154941 | 190341
7 | 42:17.67 | 6:25.33 | 190342 | 219249
8 | 48:43.25 | 5:13.74 | 219250 | 242798
Track 1
Filename D:\Musicgate's rips\כבשוש - כבשוש - 2015\01 - יגדל.wav
Pre-gap length 0:00:02.00
Peak level 97.1 %
Extraction speed 1.2 X
Track quality 100.0 %
Test CRC DD486AD8
Copy CRC DD486AD8
Track not present in AccurateRip database
Copy OK
Track 2
Filename D:\Musicgate's rips\כבשוש - כבשוש - 2015\02 - ידיד נפש.wav
Pre-gap length 0:00:01.54
Peak level 98.2 %
Extraction speed 1.3 X
Track quality 100.0 %
Test CRC 3800D61F
Copy CRC 3800D61F
Track not present in AccurateRip database
Copy OK
Track 3
Filename D:\Musicgate's rips\כבשוש - כבשוש - 2015\03 - שין.wav
Pre-gap length 0:00:02.11
Peak level 97.0 %
Extraction speed 1.5 X
Track quality 100.0 %
Test CRC AB17A962
Copy CRC AB17A962
Track not present in AccurateRip database
Copy OK
Track 4
Filename D:\Musicgate's rips\כבשוש - כבשוש - 2015\04 - צור משלו.wav
Pre-gap length 0:00:01.73
Peak level 97.0 %
Extraction speed 1.6 X
Track quality 100.0 %
Test CRC 50E0543E
Copy CRC 50E0543E
Track not present in AccurateRip database
Copy OK
Track 5
Filename D:\Musicgate's rips\כבשוש - כבשוש - 2015\05 - איכה.wav
Pre-gap length 0:00:00.63
Peak level 97.2 %
Extraction speed 1.8 X
Track quality 100.0 %
Test CRC 80551B26
Copy CRC 80551B26
Track not present in AccurateRip database
Copy OK
Track 6
Filename D:\Musicgate's rips\כבשוש - כבשוש - 2015\06 - מיסטר יוניברס.wav
Pre-gap length 0:00:02.72
Peak level 96.9 %
Extraction speed 2.0 X
Track quality 100.0 %
Test CRC 81A8F742
Copy CRC 81A8F742
Track not present in AccurateRip database
Copy OK
Track 7
Filename D:\Musicgate's rips\כבשוש - כבשוש - 2015\07 - אנעים זמירות.wav
Pre-gap length 0:00:02.06
Peak level 97.0 %
Extraction speed 1.9 X
Track quality 99.9 %
Test CRC DC6086D9
Copy CRC DC6086D9
Track not present in AccurateRip database
Copy OK
Track 8
Filename D:\Musicgate's rips\כבשוש - כבשוש - 2015\08 - לונג סטריט.wav
Pre-gap length 0:00:03.42
Peak level 97.0 %
Extraction speed 2.1 X
Track quality 100.0 %
Test CRC 9CC6CDC4
Copy CRC 9CC6CDC4
Track not present in AccurateRip database
Copy OK
None of the tracks are present in the AccurateRip database
No errors occurred
End of status report
==== Log checksum 6A45FB4930C466EEF1DC5752E7E75EF2D5D17E9F6B7376514186E1DB612096C8 ====
 
Содержание индексной карты (.CUE)

REM GENRE Fusion
REM DATE 2015
REM DISCID 630CA508
REM COMMENT "ExactAudioCopy v1.3"
PERFORMER "כבשוש"
TITLE "כבשוש"
REM COMPOSER ""
FILE "01 - יגדל.wav" WAVE
TRACK 01 AUDIO
TITLE "יגדל"
PERFORMER "כבשוש"
REM COMPOSER ""
FLAGS DCP
INDEX 01 00:00:00
TRACK 02 AUDIO
TITLE "ידיד נפש"
PERFORMER "כבשוש"
REM COMPOSER ""
FLAGS DCP
INDEX 00 08:41:73
FILE "02 - ידיד נפש.wav" WAVE
INDEX 01 00:00:00
TRACK 03 AUDIO
TITLE "שין"
PERFORMER "כבשוש"
REM COMPOSER ""
FLAGS DCP
INDEX 00 04:52:71
FILE "03 - שין.wav" WAVE
INDEX 01 00:00:00
TRACK 04 AUDIO
TITLE "צור משלו"
PERFORMER "כבשוש"
REM COMPOSER ""
FLAGS DCP
INDEX 00 06:19:54
FILE "04 - צור משלו.wav" WAVE
INDEX 01 00:00:00
TRACK 05 AUDIO
TITLE "איכה"
PERFORMER "כבשוש"
REM COMPOSER ""
FLAGS DCP
INDEX 00 05:44:63
FILE "05 - איכה.wav" WAVE
INDEX 01 00:00:00
TRACK 06 AUDIO
TITLE "מיסטר יוניברס"
PERFORMER "כבשוש"
REM COMPOSER ""
FLAGS DCP
INDEX 00 08:36:57
FILE "06 - מיסטר יוניברס.wav" WAVE
INDEX 01 00:00:00
TRACK 07 AUDIO
TITLE "אנעים זמירות"
PERFORMER "כבשוש"
REM COMPOSER ""
FLAGS DCP
INDEX 00 07:49:70
FILE "07 - אנעים זמירות.wav" WAVE
INDEX 01 00:00:00
TRACK 08 AUDIO
TITLE "לונג סטריט"
PERFORMER "כבשוש"
REM COMPOSER ""
FLAGS DCP
INDEX 00 06:21:66
FILE "08 - לונג סטריט.wav" WAVE
INDEX 01 00:00:00
 
Лог проверки качества


 
Матрица


 
Состав
Musical Production - Daniel Zamir
Eviatar Kirsh - Bass, Arrangements
Dalik Samkai - Piano, Arrangements
Guy Rodovich - Soprano Sax
Oved Pinchover - Alto Sax
Aviv Gal - Tenor Sax, Second Alto Sax on "Yigdal"
Effi Goldberg - Trombone
Iftach Kirsh - Guitar
Einat Harel - Drums
Daniel Zamir - Soprano Sax and Vocals on "Ani'im Zmirot"
Oded Ben Itzhak - Second Tenor Sax on "Yigdal"
22:22
260
Нет комментариев. Ваш будет первым!