Поиск

(World Fusion / Contemporary Jazz) [CD] Dwiki Dharmawan - Pasar Klewer - 2016, FLAC (tracks+.cue), lossless

(World Fusion / Contemporary Jazz) [CD] Dwiki Dharmawan - Pasar Klewer - 2016, FLAC (tracks+.cue), lossless
Треклист:
Dwiki Dharmawan / Pasar Klewer
Жанр: World Fusion / Contemporary Jazz
Носитель: CD
Страна-производитель диска (релиза): USA
Год издания: 2016
Издатель (лейбл): MoonJune Records
Номер по каталогу: MJR081
Страна исполнителя (группы): Indonesia
Аудиокодек: FLAC (*.flac)
Тип рипа: tracks+.cue
Битрейт аудио: lossless
Продолжительность: 47:06 + 53:00 min
Источник (релизер): свой рип с CD
Наличие сканов в содержимом раздачи:
Треклист:
CD1:
1. Pasar Klewer. 12:13
2. Spirit Of Peace. 8:55
3. Campuhan. 12:57
4. Forest. 8:00
5. London In June. 4:58
CD2:
1. Lir Ilir. 11:38
2. Bubuyu Bulan. 8:31
3. Frog Dance. 10:54
4. Life Itself. 6:59
5. Purnama. 6:49
6. Forest (Instrumental). 7:59
 
Лог создания рипа CD1
Exact Audio Copy V1.0 beta 4 from 7. December 2014
EAC extraction logfile from 7. November 2016, 14:00
Dwiki Dharmawan / Pasar Klewer (CD1)
Used drive : Optiarc DVD RW AD-5260S Adapter: 1 ID: 1
Read mode : Secure
Utilize accurate stream : Yes
Defeat audio cache : Yes
Make use of C2 pointers : No
Read offset correction : 48
Overread into Lead-In and Lead-Out : No
Fill up missing offset samples with silence : Yes
Delete leading and trailing silent blocks : No
Null samples used in CRC calculations : Yes
Used interface : Native Win32 interface for Win NT & 2000
Gap handling : Appended to previous track
Used output format : Internal WAV Routines
Sample format : 44.100 Hz; 16 Bit; Stereo
TOC of the extracted CD
Track | Start | Length | Start sector | End sector
---------------------------------------------------------
1 | 0:00.00 | 12:15.65 | 0 | 55189
2 | 12:15.65 | 8:54.28 | 55190 | 95267
3 | 21:10.18 | 12:59.74 | 95268 | 153766
4 | 34:10.17 | 8:01.57 | 153767 | 189898
5 | 42:11.74 | 4:54.51 | 189899 | 211999
Track 1
Filename C:\_EAC\01. Pasar Klewer.wav
Pre-gap length 0:00:02.00
Peak level 96.5 %
Extraction speed 1.2 X
Track quality 100.0 %
Test CRC 30A4EE52
Copy CRC 30A4EE52
Track not present in AccurateRip database
Copy OK
Track 2
Filename C:\_EAC\02. Spirit Of Peace.wav
Pre-gap length 0:00:02.00
Peak level 96.7 %
Extraction speed 1.1 X
Track quality 100.0 %
Test CRC 01363C25
Copy CRC 01363C25
Track not present in AccurateRip database
Copy OK
Track 3
Filename C:\_EAC\03. Campuhan.wav
Pre-gap length 0:00:02.00
Peak level 100.0 %
Extraction speed 1.2 X
Track quality 100.0 %
Test CRC 983EF482
Copy CRC 983EF482
Track not present in AccurateRip database
Copy OK
Track 4
Filename C:\_EAC\04. Forest.wav
Pre-gap length 0:00:02.00
Peak level 96.0 %
Extraction speed 1.1 X
Track quality 100.0 %
Test CRC C93F08C1
Copy CRC C93F08C1
Track not present in AccurateRip database
Copy OK
Track 5
Filename C:\_EAC\05. London In June.wav
Pre-gap length 0:00:02.00
Peak level 96.6 %
Extraction speed 1.1 X
Track quality 100.0 %
Test CRC 493DCAF7
Copy CRC 493DCAF7
Track not present in AccurateRip database
Copy OK
None of the tracks are present in the AccurateRip database
No errors occurred
End of status report
---- CUETools DB Plugin V2.1.4
[CTDB TOCID: jVRsi_OWrZsoPyQtAdwyDPDM_cQ-] disk not present in database
Submit result: jVRsi_OWrZsoPyQtAdwyDPDM_cQ- has been uploaded
==== Log checksum EAB97D7D99AECE7C34236217420C31B28258CC83C1E0019E5DFF8A7502303F85 ====
 
Лог создания рипа CD2
Exact Audio Copy V1.0 beta 4 from 7. December 2014
EAC extraction logfile from 7. November 2016, 15:38
Dwiki Dharmawan / Pasar Klewer (CD2)
Used drive : Optiarc DVD RW AD-5260S Adapter: 1 ID: 1
Read mode : Secure
Utilize accurate stream : Yes
Defeat audio cache : Yes
Make use of C2 pointers : No
Read offset correction : 48
Overread into Lead-In and Lead-Out : No
Fill up missing offset samples with silence : Yes
Delete leading and trailing silent blocks : No
Null samples used in CRC calculations : Yes
Used interface : Native Win32 interface for Win NT & 2000
Gap handling : Appended to previous track
Used output format : Internal WAV Routines
Sample format : 44.100 Hz; 16 Bit; Stereo
TOC of the extracted CD
Track | Start | Length | Start sector | End sector
---------------------------------------------------------
1 | 0:00.00 | 11:40.48 | 0 | 52547
2 | 11:40.48 | 8:33.28 | 52548 | 91050
3 | 20:14.01 | 10:56.00 | 91051 | 140250
4 | 31:10.01 | 7:01.57 | 140251 | 171882
5 | 38:11.58 | 6:50.00 | 171883 | 202632
6 | 45:01.58 | 7:59.03 | 202633 | 238560
Track 1
Filename C:\_EAC\01. Lir Ilir.wav
Pre-gap length 0:00:02.00
Peak level 100.0 %
Extraction speed 1.2 X
Track quality 100.0 %
Test CRC DDB71A69
Copy CRC DDB71A69
Track not present in AccurateRip database
Copy OK
Track 2
Filename C:\_EAC\02. Bubuyu Bulan.wav
Pre-gap length 0:00:02.00
Peak level 100.0 %
Extraction speed 1.1 X
Track quality 100.0 %
Test CRC 85015865
Copy CRC 85015865
Track not present in AccurateRip database
Copy OK
Track 3
Filename C:\_EAC\03. Frog Dance.wav
Pre-gap length 0:00:02.00
Peak level 100.0 %
Extraction speed 1.1 X
Track quality 99.9 %
Test CRC 333447BC
Copy CRC 333447BC
Track not present in AccurateRip database
Copy OK
Track 4
Filename C:\_EAC\04. Life Itself.wav
Pre-gap length 0:00:02.00
Peak level 100.0 %
Extraction speed 1.1 X
Track quality 100.0 %
Test CRC 50B0BE49
Copy CRC 50B0BE49
Track not present in AccurateRip database
Copy OK
Track 5
Filename C:\_EAC\05. Purnama.wav
Pre-gap length 0:00:02.00
Peak level 96.8 %
Extraction speed 1.0 X
Track quality 99.9 %
Test CRC E8F11CD2
Copy CRC E8F11CD2
Track not present in AccurateRip database
Copy OK
Track 6
Filename C:\_EAC\06. Forest (Instrumental).wav
Pre-gap length 0:00:02.00
Peak level 100.0 %
Extraction speed 1.1 X
Track quality 99.9 %
Test CRC 712E375E
Copy CRC 712E375E
Track not present in AccurateRip database
Copy OK
None of the tracks are present in the AccurateRip database
No errors occurred
End of status report
---- CUETools DB Plugin V2.1.4
[CTDB TOCID: fLbMUevcjDmzLbVDRsIH17BtLrU-] disk not present in database
Submit result: fLbMUevcjDmzLbVDRsIH17BtLrU- has been uploaded
==== Log checksum 4029B229D3937A8F445847B275B59723A70B9AE8F6EA1936D4D618B02A4B55CC ====
 
Содержание индексной карты (.CUE) CD1
REM GENRE "World Fusion"
REM DATE 2016
REM DISCID 350B0A05
REM COMMENT "ExactAudioCopy v1.0b4"
PERFORMER "Dwiki Dharmawan"
TITLE "Pasar Klewer (CD1)"
FILE "01. Pasar Klewer.wav" WAVE
TRACK 01 AUDIO
TITLE "Pasar Klewer"
PERFORMER "Dwiki Dharmawan"
INDEX 01 00:00:00
TRACK 02 AUDIO
TITLE "Spirit Of Peace"
PERFORMER "Dwiki Dharmawan"
INDEX 00 12:13:65
FILE "02. Spirit Of Peace.wav" WAVE
INDEX 01 00:00:00
TRACK 03 AUDIO
TITLE "Campuhan"
PERFORMER "Dwiki Dharmawan"
INDEX 00 08:52:28
FILE "03. Campuhan.wav" WAVE
INDEX 01 00:00:00
TRACK 04 AUDIO
TITLE "Forest"
PERFORMER "Dwiki Dharmawan"
INDEX 00 12:57:74
FILE "04. Forest.wav" WAVE
INDEX 01 00:00:00
TRACK 05 AUDIO
TITLE "London In June"
PERFORMER "Dwiki Dharmawan"
INDEX 00 07:59:57
FILE "05. London In June.wav" WAVE
INDEX 01 00:00:00
 
Содержание индексной карты (.CUE) CD2
REM GENRE "World Fusion"
REM DATE 2016
REM DISCID 430C6C06
REM COMMENT "ExactAudioCopy v1.0b4"
PERFORMER "Dwiki Dharmawan"
TITLE "Pasar Klewer (CD2)"
FILE "01. Lir Ilir.wav" WAVE
TRACK 01 AUDIO
TITLE "Lir Ilir"
PERFORMER "Dwiki Dharmawan"
INDEX 01 00:00:00
TRACK 02 AUDIO
TITLE "Bubuyu Bulan"
PERFORMER "Dwiki Dharmawan"
INDEX 00 11:38:48
FILE "02. Bubuyu Bulan.wav" WAVE
INDEX 01 00:00:00
TRACK 03 AUDIO
TITLE "Frog Dance"
PERFORMER "Dwiki Dharmawan"
INDEX 00 08:31:28
FILE "03. Frog Dance.wav" WAVE
INDEX 01 00:00:00
TRACK 04 AUDIO
TITLE "Life Itself"
PERFORMER "Dwiki Dharmawan"
INDEX 00 10:54:00
FILE "04. Life Itself.wav" WAVE
INDEX 01 00:00:00
TRACK 05 AUDIO
TITLE "Purnama"
PERFORMER "Dwiki Dharmawan"
INDEX 00 06:59:57
FILE "05. Purnama.wav" WAVE
INDEX 01 00:00:00
TRACK 06 AUDIO
TITLE "Forest (Instrumental)"
PERFORMER "Dwiki Dharmawan"
INDEX 00 06:48:00
FILE "06. Forest (Instrumental).wav" WAVE
INDEX 01 00:00:00
 
Лог проверки качества CD1
-----------------------
DON'T MODIFY THIS FILE
-----------------------
PERFORMER: auCDtect Task Manager, ver. 1.6.0 RC1 build 1.6.0.1
Copyright (c) 2008-2010 y-soft. All rights reserved
http://y-soft.org
ANALYZER: auCDtect: CD records authenticity detector, version 0.8.2
Copyright (c) 2004 Oleg Berngardt. All rights reserved.
Copyright (c) 2004 Alexander Djourik. All rights reserved.
FILE: 01. Pasar Klewer.flac
Size: 78600022 Hash: 0F8AA1E6669C58FFD16D090B699FE4BD Accuracy: -m0
Conclusion: CDDA 100%
Signature: 915A300B35059091A9E5923BD5C4F4E1C3DF7B4A
FILE: 02. Spirit Of Peace.flac
Size: 57454381 Hash: F7086D077F2169BB4EFF827095DB8BEA Accuracy: -m0
Conclusion: CDDA 100%
Signature: 4C62208D5C405DE4E7560721EC3B255C10B6072C
FILE: 03. Campuhan.flac
Size: 76800386 Hash: 8B7F6DA2F739A5C688CBC180E40A812C Accuracy: -m0
Conclusion: CDDA 100%
Signature: AFA44E859B15E0A640800978DE849469EDF151BB
FILE: 04. Forest.flac
Size: 54173763 Hash: D1B7B6229B892E2C5D48BC6E9130B014 Accuracy: -m0
Conclusion: CDDA 100%
Signature: 1F2BABFB7942E537EF09DD2D6587A30641135B1D
FILE: 05. London In June.flac
Size: 32350449 Hash: A3844FB7ABEE74074E6E13679CBD0BE2 Accuracy: -m0
Conclusion: CDDA 100%
Signature: 8C49EC99B33809680E83669DC0D11557D62CE9E6
 
Лог проверки качества CD2
-----------------------
DON'T MODIFY THIS FILE
-----------------------
PERFORMER: auCDtect Task Manager, ver. 1.6.0 RC1 build 1.6.0.1
Copyright (c) 2008-2010 y-soft. All rights reserved
http://y-soft.org
ANALYZER: auCDtect: CD records authenticity detector, version 0.8.2
Copyright (c) 2004 Oleg Berngardt. All rights reserved.
Copyright (c) 2004 Alexander Djourik. All rights reserved.
FILE: 01. Lir Ilir.flac
Size: 71429028 Hash: CC180A4FD40100B92D492F7EDBD7FC77 Accuracy: -m0
Conclusion: CDDA 100%
Signature: 355D323A8F05B17B1D701288F4D668E852CBB6CA
FILE: 02. Bubuyu Bulan.flac
Size: 48247363 Hash: 92B4F63DB8122EB74B357D24F5810128 Accuracy: -m0
Conclusion: CDDA 100%
Signature: B69C4F2F9F3EEE380D0FC3E48B044A2788AFF77F
FILE: 03. Frog Dance.flac
Size: 78902058 Hash: CB48D33633C6B6FC21883D45FF03F7E4 Accuracy: -m0
Conclusion: CDDA 100%
Signature: B65C24B79BF55747B2B5B44A548BB1FD1FEB957C
FILE: 04. Life Itself.flac
Size: 47437620 Hash: 552400F2060D9D2ED7822A1583F2E738 Accuracy: -m0
Conclusion: CDDA 100%
Signature: 8EE66330ED7DBB59341FB48AB7875333DD90A90A
FILE: 05. Purnama.flac
Size: 35365298 Hash: A44ADB2687BB24229B1F9385B589F62E Accuracy: -m0
Conclusion: CDDA 100%
Signature: B300FFC409262D0FE120FD3C9E73F5A6C0DFC998
FILE: 06. Forest (Instrumental).flac
Size: 50427091 Hash: FF54FAD2950D6B7B6DE615D4393992CF Accuracy: -m0
Conclusion: CDDA 99%
Signature: 62D810FB7697BF79430E9872D09D883F3142B4AC
 
Об альбоме (сборнике)
Recorded in London, June 9 & 10, 2015, at EastCote Studio by Phil Bagenal.
Boris Savoldelli's vocal parts recorded at BSS home studio in Pisogne, Italy, August 30, 2015.
Female vocals and gamelan orchestra pre-recorded in Jakarta in May 2015.
Balinese frogs recorded live in Ubud, Bali, in August 2015.
Mixed and mastered by Mark Wingfield at Heron Island Studio, Cambridgeshire, England in October 2015 and April 2016.
Produced by Leonardo Pavkovic and Dwiki Dharmawan.
Executive producers Dwiki Dharmawan for Farabi Music and Leonardo Pavkovic for MoonJune Music.
released August 16, 2016
 
Состав
- Dwiki Dharmawan / acoustic piano
- Yaron Stavi / upright bass
- Asaf Sirkis / drums, udu clay percussion & konakol singing (
- Mark Wingfield / guitar (tunes 1, 4, 9, 11)
- Nicolas Meier / glissentar (tunes 2, 5, 6), acoustic guitar (tunes 8, 10)
- Gilad Atzmon / clarinet (tunes 2, 7), soprano sax (tunes 3, 8)
- Boris Savoldelli / vocals (tunes 4, 5)
- Aris Daryono / vocals, gamalan percussion, kendang percussion, rebab 3-strings violin (tunes 1, 2, 3, 6)
- Peni Candra Rini / vocals (tune 6)
- Gamelan Jess Jegog led by I Nyoman Wydod / gamelan orchestra (tune 3)
- Balinese Frogs / (tune 8)
22:25
297
Нет комментариев. Ваш будет первым!