Поиск

(vocal|act) [WEB] Janne Mark with Arve Henriksen - Pilgrim - 2018, FLAC (tracks), lossless

(vocal|act) [WEB] Janne Mark with Arve Henriksen - Pilgrim - 2018, FLAC (tracks), lossless
Треклист:
Janne Mark with Arve Henriksen - Pilgrim

Жанр: vocal
Носитель: WEB
Страна-производитель диска (релиза): Germany
Год издания: 2018
Издатель (лейбл): ACT
Страна исполнителя (группы): Denmark
Аудиокодек: FLAC (*.flac)
Тип рипа: tracks
Битрейт аудио: lossless
Продолжительность: 00:43:47
Источник (релизер): qobuz.com/gb-en/album/pilgrim-janne-mark-with-arve-henriksen/0614427973528
Наличие сканов в содержимом раздачи: нет
Треклист:
1. Igen Berørt (Nadverhymne)
2. Verden Er en Salme
3. Pilgrim
4. Intro
5. Gå Stille Og Tyst
6. Elsket Favnet, Husket Savnet
7. Syng for Alverdens Urolige Hjerter
8. Vinter
9. Julen I Hjertet
10. I Verden Udenfor Verden
Джанне Марк: «Музыка «Pilgrim» написана для людей, которые не знакомы с церковью, а также для тех, кто ее хорошо знает». Музыка христианской церкви и джаза всегда была тесно связана. Духовность, а затем и евангельская (gospel) музыка были плодородной почвой для джаза и важным источником вдохновения.
 
Лог проверки качества
Общее
Полное имя : /Users/user/Movies/Janne Mark with Arve Henriksen - Pilgrim (2018) [WEB FLAC]/01 - Igen Berort (Nadverhymne).flac
Формат : FLAC
Формат/Информация : Free Lossless Audio Codec
Размер файла : 21,0 Мбайт
Продолжительность : 4 м. 17 с.
Режим общего битрейта : Переменный
Общий поток : 686 Кбит/сек
Альбом : Pilgrim
Часть : 1
Часть/Всего : 1
Трек : Igen Berørt (Nadverhymne)
Трек/Положение : 1
Трек/Всего : 10
Исполнитель : Janne Mark
Жанр : Jazz
Дата записи : 2018
Обложка : Yes
Тип обложки : Cover (front)
MIME-тип обложки : image/jpeg
Аудио
Формат : FLAC
Формат/Информация : Free Lossless Audio Codec
Продолжительность : 4 м. 17 с.
Вид битрейта : Переменный
Битрейт : 684 Кбит/сек
Каналы : 2 канала
Расположение каналов : Front: L R
Частота : 44,1 КГц
Битовая глубина : 16 бит
Размер потока : 21,0 Мбайт (100%)
Библиотека кодирования : libFLAC 1.3.0 (UTC 2013-05-26)
Общее
Полное имя : /Users/user/Movies/Janne Mark with Arve Henriksen - Pilgrim (2018) [WEB FLAC]/02 - Verden Er en Salme.flac
Формат : FLAC
Формат/Информация : Free Lossless Audio Codec
Размер файла : 24,7 Мбайт
Продолжительность : 4 м. 47 с.
Режим общего битрейта : Переменный
Общий поток : 722 Кбит/сек
Альбом : Pilgrim
Часть : 1
Часть/Всего : 1
Трек : Verden Er en Salme
Трек/Положение : 2
Трек/Всего : 10
Исполнитель : Janne Mark
Жанр : Jazz
Дата записи : 2018
Обложка : Yes
Тип обложки : Cover (front)
MIME-тип обложки : image/jpeg
Аудио
Формат : FLAC
Формат/Информация : Free Lossless Audio Codec
Продолжительность : 4 м. 47 с.
Вид битрейта : Переменный
Битрейт : 720 Кбит/сек
Каналы : 2 канала
Расположение каналов : Front: L R
Частота : 44,1 КГц
Битовая глубина : 16 бит
Размер потока : 24,7 Мбайт (100%)
Библиотека кодирования : libFLAC 1.3.0 (UTC 2013-05-26)
Общее
Полное имя : /Users/user/Movies/Janne Mark with Arve Henriksen - Pilgrim (2018) [WEB FLAC]/03 - Pilgrim.flac
Формат : FLAC
Формат/Информация : Free Lossless Audio Codec
Размер файла : 26,4 Мбайт
Продолжительность : 5 м. 39 с.
Режим общего битрейта : Переменный
Общий поток : 650 Кбит/сек
Альбом : Pilgrim
Часть : 1
Часть/Всего : 1
Трек : Pilgrim
Трек/Положение : 3
Трек/Всего : 10
Исполнитель : Janne Mark
Жанр : Jazz
Дата записи : 2018
Обложка : Yes
Тип обложки : Cover (front)
MIME-тип обложки : image/jpeg
Аудио
Формат : FLAC
Формат/Информация : Free Lossless Audio Codec
Продолжительность : 5 м. 39 с.
Вид битрейта : Переменный
Битрейт : 649 Кбит/сек
Каналы : 2 канала
Расположение каналов : Front: L R
Частота : 44,1 КГц
Битовая глубина : 16 бит
Размер потока : 26,3 Мбайт (100%)
Библиотека кодирования : libFLAC 1.3.0 (UTC 2013-05-26)
Общее
Полное имя : /Users/user/Movies/Janne Mark with Arve Henriksen - Pilgrim (2018) [WEB FLAC]/04 - Intro.flac
Формат : FLAC
Формат/Информация : Free Lossless Audio Codec
Размер файла : 3,16 Мбайт
Продолжительность : 48 с. 303 мс.
Режим общего битрейта : Переменный
Общий поток : 548 Кбит/сек
Альбом : Pilgrim
Часть : 1
Часть/Всего : 1
Трек : Intro
Трек/Положение : 4
Трек/Всего : 10
Исполнитель : Janne Mark
Жанр : Jazz
Дата записи : 2018
Обложка : Yes
Тип обложки : Cover (front)
MIME-тип обложки : image/jpeg
Аудио
Формат : FLAC
Формат/Информация : Free Lossless Audio Codec
Продолжительность : 48 с. 303 мс.
Вид битрейта : Переменный
Битрейт : 538 Кбит/сек
Каналы : 2 канала
Расположение каналов : Front: L R
Частота : 44,1 КГц
Битовая глубина : 16 бит
Размер потока : 3,10 Мбайт (98%)
Библиотека кодирования : libFLAC 1.3.0 (UTC 2013-05-26)
Общее
Полное имя : /Users/user/Movies/Janne Mark with Arve Henriksen - Pilgrim (2018) [WEB FLAC]/05 - Gay Stille Og Tyst.flac
Формат : FLAC
Формат/Информация : Free Lossless Audio Codec
Размер файла : 21,7 Мбайт
Продолжительность : 4 м. 28 с.
Режим общего битрейта : Переменный
Общий поток : 679 Кбит/сек
Альбом : Pilgrim
Часть : 1
Часть/Всего : 1
Трек : Gå Stille Og Tyst
Трек/Положение : 5
Трек/Всего : 10
Исполнитель : Janne Mark
Жанр : Jazz
Дата записи : 2018
Обложка : Yes
Тип обложки : Cover (front)
MIME-тип обложки : image/jpeg
Аудио
Формат : FLAC
Формат/Информация : Free Lossless Audio Codec
Продолжительность : 4 м. 28 с.
Вид битрейта : Переменный
Битрейт : 677 Кбит/сек
Каналы : 2 канала
Расположение каналов : Front: L R
Частота : 44,1 КГц
Битовая глубина : 16 бит
Размер потока : 21,6 Мбайт (100%)
Библиотека кодирования : libFLAC 1.3.1 (UTC 2014-11-25)
Общее
Полное имя : /Users/user/Movies/Janne Mark with Arve Henriksen - Pilgrim (2018) [WEB FLAC]/06 - Elsket Favnet, Husket Savnet.flac
Формат : FLAC
Формат/Информация : Free Lossless Audio Codec
Размер файла : 18,0 Мбайт
Продолжительность : 3 м. 57 с.
Режим общего битрейта : Переменный
Общий поток : 637 Кбит/сек
Альбом : Pilgrim
Часть : 1
Часть/Всего : 1
Трек : Elsket Favnet, Husket Savnet
Трек/Положение : 6
Трек/Всего : 10
Исполнитель : Janne Mark
Жанр : Jazz
Дата записи : 2018
Обложка : Yes
Тип обложки : Cover (front)
MIME-тип обложки : image/jpeg
Аудио
Формат : FLAC
Формат/Информация : Free Lossless Audio Codec
Продолжительность : 3 м. 57 с.
Вид битрейта : Переменный
Битрейт : 635 Кбит/сек
Каналы : 2 канала
Расположение каналов : Front: L R
Частота : 44,1 КГц
Битовая глубина : 16 бит
Размер потока : 18,0 Мбайт (100%)
Библиотека кодирования : libFLAC 1.3.0 (UTC 2013-05-26)
Общее
Полное имя : /Users/user/Movies/Janne Mark with Arve Henriksen - Pilgrim (2018) [WEB FLAC]/07 - Syng for Alverdens Urolige Hjerter.flac
Формат : FLAC
Формат/Информация : Free Lossless Audio Codec
Размер файла : 26,7 Мбайт
Продолжительность : 5 м. 36 с.
Режим общего битрейта : Переменный
Общий поток : 667 Кбит/сек
Альбом : Pilgrim
Часть : 1
Часть/Всего : 1
Трек : Syng for Alverdens Urolige Hjerter
Трек/Положение : 7
Трек/Всего : 10
Исполнитель : Janne Mark
Жанр : Jazz
Дата записи : 2018
Обложка : Yes
Тип обложки : Cover (front)
MIME-тип обложки : image/jpeg
Аудио
Формат : FLAC
Формат/Информация : Free Lossless Audio Codec
Продолжительность : 5 м. 36 с.
Вид битрейта : Переменный
Битрейт : 666 Кбит/сек
Каналы : 2 канала
Расположение каналов : Front: L R
Частота : 44,1 КГц
Битовая глубина : 16 бит
Размер потока : 26,7 Мбайт (100%)
Библиотека кодирования : libFLAC 1.3.0 (UTC 2013-05-26)
Общее
Полное имя : /Users/user/Movies/Janne Mark with Arve Henriksen - Pilgrim (2018) [WEB FLAC]/08 - Vinter.flac
Формат : FLAC
Формат/Информация : Free Lossless Audio Codec
Размер файла : 27,8 Мбайт
Продолжительность : 5 м. 28 с.
Режим общего битрейта : Переменный
Общий поток : 710 Кбит/сек
Альбом : Pilgrim
Часть : 1
Часть/Всего : 1
Трек : Vinter
Трек/Положение : 8
Трек/Всего : 10
Исполнитель : Janne Mark
Жанр : Jazz
Дата записи : 2018
Обложка : Yes
Тип обложки : Cover (front)
MIME-тип обложки : image/jpeg
Аудио
Формат : FLAC
Формат/Информация : Free Lossless Audio Codec
Продолжительность : 5 м. 28 с.
Вид битрейта : Переменный
Битрейт : 708 Кбит/сек
Каналы : 2 канала
Расположение каналов : Front: L R
Частота : 44,1 КГц
Битовая глубина : 16 бит
Размер потока : 27,7 Мбайт (100%)
Библиотека кодирования : libFLAC 1.3.0 (UTC 2013-05-26)
 
Об альбоме
Recording Information
Recorded by Lars Nilsson at Nilento Studios, Kållered (SE), May 4 & 5, 2017
and by Boe Larsen at MillFactory Studios, Copenhagen, May - June 2017
Mixed and mastered by Lars Nilsson
Produced by Esben Eyermann and Janne Mark
Vocals produced by Boe Larsen
Cover art by Neo Rauch (detail), “Kleine Unterbrechung” 2017
by kind permission of the artist, courtesy Eigen&Art Leipzig / Berlin
Arve Henriksen appears courtesy of ECM Records and Rune Grammofon
 
Состав
Janne Mark / vocals
Arve Henriksen / trumpet
Henrik Gunde Pedersen / piano & celeste
Esben Eyermann / bass
Jesper Uno Kofoed / drums
Gustaf Ljunggren / lap steel
Не забываем нажать - сказать "Спасибо"
Приватный:
Нет (DHT включён)
Размер:
211.77 Мб (222,059,116 байт) » файлов: 12
Участники:
0 раздают, 0 качают (0 участников всего)
Внешние участники:
2 раздают, 1 качают (3 участников всего) [ Обновить ]
Есть вопросы - пишите личное сообщение пользователю M0p94ok.
15:38
107
Нет комментариев. Ваш будет первым!