Поиск

(Funk, Soul) [CD] Hideki Saijo - Forever Idol - 2007, FLAC (tracks+.cue), lossless

(Funk, Soul) [CD] Hideki Saijo - Forever Idol - 2007, FLAC (tracks+.cue), lossless
Треклист:
Hideki Saijo - Forever Idol
Жанр: Funk, Soul
Носитель: CD
Страна-производитель диска (релиза): Гонконг
Год издания: 2007
Издатель (лейбл): BMG/Sony
Номер по каталогу: 88697088952
Страна исполнителя (группы): Япония
Аудиокодек: FLAC (*.flac)
Тип рипа: tracks+.cue
Битрейт аудио: lossless
Продолжительность: 72:48
Источник (релизер): IKnowNothing
Наличие сканов в содержимом раздачи: нет
Треклист:
01. Kizudarake no Lola (3:09)
02. Dakishimete Jitterbug (Careless Whisper) (4:26)
03. Ai no Sono (4:22)
04. Blue Sky Blue (5:16)
05. Harukanaru Koibito E (4:31)
06. Gyarandu (3:11)
07. Young Man (Y.M.C.A.) (4:46)
08. Hop! Step! Jump! (3:37)
09. Honoo (4:42)
10. Tsuioku no Hitomi (Lola) (4:13)
11. Last Scene (3:50)
12. Minami Jyujisei (4:14)
13. Ichiman Konen no Ai (4:29)
14. Yume no Tsumi (Rain of Dream) (3:47)
15. Wakaki shishitachi (4:49)
16. Yuuki ga Areba (4:08)
17. Ikutsu Mono Hoshi ga Nagare (5:18)
 
Лог создания рипа
Exact Audio Copy V1.3 from 2. September 2016
EAC extraction logfile from 2. December 2016, 3:31
西城秀樹 / 永遠的偶像
Used drive : ATAPI iHAS124 B Adapter: 1 ID: 1
Read mode : Secure
Utilize accurate stream : Yes
Defeat audio cache : Yes
Make use of C2 pointers : No
Read offset correction : 6
Overread into Lead-In and Lead-Out : No
Fill up missing offset samples with silence : Yes
Delete leading and trailing silent blocks : No
Null samples used in CRC calculations : Yes
Used interface : Native Win32 interface for Win NT & 2000
Gap handling : Appended to previous track
Used output format : User Defined Encoder
Selected bitrate : 1024 kBit/s
Quality : High
Add ID3 tag : No
Command line compressor : C:\Program Files\Exact Audio Copy\FLAC\FLAC.EXE
Additional command line options : -8 -e -V -T "ARTIST=%artist%" -T "TITLE=%title%" -T "ALBUM=%albumtitle%" -T "DATE=%year%" -T "TRACKNUMBER=%tracknr%" -T "GENRE=%genre%" -T "PERFORMER=%albuminterpret%" -T "COMPOSER=%composer%" %haslyrics%--tag-from-file=LYRICS="%lyricsfile%"%haslyrics% -T "ALBUMARTIST=%albumartist%" -T "DISCNUMBER=%cdnumber%" -T "TOTALDISCS=%totalcds%" -T "TOTALTRACKS=%numtracks%" -T "COMMENT=%comment%" %source% -o %dest%
TOC of the extracted CD
Track | Start | Length | Start sector | End sector
---------------------------------------------------------
1 | 0:00.00 | 3:09.10 | 0 | 14184
2 | 3:09.10 | 4:25.69 | 14185 | 34128
3 | 7:35.04 | 4:21.44 | 34129 | 53747
4 | 11:56.48 | 5:15.54 | 53748 | 77426
5 | 17:12.27 | 4:31.06 | 77427 | 97757
6 | 21:43.33 | 3:10.46 | 97758 | 112053
7 | 24:54.04 | 4:46.31 | 112054 | 133534
8 | 29:40.35 | 3:37.00 | 133535 | 149809
9 | 33:17.35 | 4:42.04 | 149810 | 170963
10 | 37:59.39 | 4:13.04 | 170964 | 189942
11 | 42:12.43 | 3:50.30 | 189943 | 207222
12 | 46:02.73 | 4:14.08 | 207223 | 226280
13 | 50:17.06 | 4:28.66 | 226281 | 246446
14 | 54:45.72 | 3:47.02 | 246447 | 263473
15 | 58:32.74 | 4:49.02 | 263474 | 285150
16 | 63:22.01 | 4:07.61 | 285151 | 303736
17 | 67:29.62 | 5:18.04 | 303737 | 327590
Track 1
Filename S:\EAC\永遠的偶像\01 西城秀樹 - 傷だらけのローラ.wav
Pre-gap length 0:00:02.00
Peak level 98.4 %
Extraction speed 3.4 X
Track quality 100.0 %
Test CRC B929BA80
Copy CRC B929BA80
Accurately ripped (confidence 5) [44B5ABEB] (AR v2)
Copy OK
Track 2
Filename S:\EAC\永遠的偶像\02 西城秀樹 - 抱きしめてジルバ.wav
Pre-gap length 0:00:03.00
Peak level 98.2 %
Extraction speed 3.3 X
Track quality 99.9 %
Test CRC AAFEB495
Copy CRC AAFEB495
Accurately ripped (confidence 5) [610A3DFB] (AR v2)
Copy OK
Track 3
Filename S:\EAC\永遠的偶像\03 西城秀樹 - 愛の園.wav
Pre-gap length 0:00:03.00
Peak level 98.2 %
Extraction speed 3.6 X
Track quality 99.9 %
Test CRC 1552C019
Copy CRC 1552C019
Accurately ripped (confidence 5) [A1E22D74] (AR v2)
Copy OK
Track 4
Filename S:\EAC\永遠的偶像\04 西城秀樹 - ブルースカイブルー.wav
Pre-gap length 0:00:03.00
Peak level 98.2 %
Extraction speed 4.0 X
Track quality 99.9 %
Test CRC D88C59B6
Copy CRC D88C59B6
Accurately ripped (confidence 4) [958E098C] (AR v2)
Copy OK
Track 5
Filename S:\EAC\永遠的偶像\05 西城秀樹 - 遙かなる恋人へ.wav
Pre-gap length 0:00:03.00
Peak level 98.3 %
Extraction speed 5.1 X
Track quality 100.0 %
Test CRC 0EA9ABE0
Copy CRC 0EA9ABE0
Accurately ripped (confidence 4) [6C0E687F] (AR v2)
Copy OK
Track 6
Filename S:\EAC\永遠的偶像\06 西城秀樹 - ギャランドゥ.wav
Pre-gap length 0:00:03.00
Peak level 98.2 %
Extraction speed 5.1 X
Track quality 100.0 %
Test CRC AA7D2FDD
Copy CRC AA7D2FDD
Accurately ripped (confidence 5) [391D9CA4] (AR v2)
Copy OK
Track 7
Filename S:\EAC\永遠的偶像\07 西城秀樹 - YOUNG MAN (Y.M.C.A.).wav
Pre-gap length 0:00:03.00
Peak level 98.5 %
Extraction speed 5.6 X
Track quality 100.0 %
Test CRC C9A3E47D
Copy CRC C9A3E47D
Accurately ripped (confidence 5) [5773DF78] (AR v2)
Copy OK
Track 8
Filename S:\EAC\永遠的偶像\08 西城秀樹 - ホップ・ステップ・ジャンプ.wav
Pre-gap length 0:00:03.00
Peak level 98.0 %
Extraction speed 5.6 X
Track quality 100.0 %
Test CRC 88976F64
Copy CRC 88976F64
Accurately ripped (confidence 5) [E2EA7D68] (AR v2)
Copy OK
Track 9
Filename S:\EAC\永遠的偶像\09 西城秀樹 - 炎.wav
Pre-gap length 0:00:03.00
Peak level 98.5 %
Extraction speed 6.0 X
Track quality 100.0 %
Test CRC 1AAF9968
Copy CRC 1AAF9968
Accurately ripped (confidence 4) [5A871DF1] (AR v2)
Copy OK
Track 10
Filename S:\EAC\永遠的偶像\10 西城秀樹 - 追憶の瞳.wav
Pre-gap length 0:00:03.00
Peak level 98.9 %
Extraction speed 6.1 X
Track quality 100.0 %
Test CRC 1A5A324A
Copy CRC 1A5A324A
Accurately ripped (confidence 5) [168172E9] (AR v2)
Copy OK
Track 11
Filename S:\EAC\永遠的偶像\11 西城秀樹 - ラストシーン.wav
Pre-gap length 0:00:03.00
Peak level 98.1 %
Extraction speed 4.9 X
Track quality 99.9 %
Test CRC AB454ED1
Copy CRC AB454ED1
Accurately ripped (confidence 4) [068610F8] (AR v2)
Copy OK
Track 12
Filename S:\EAC\永遠的偶像\12 西城秀樹 - 南十字星.wav
Pre-gap length 0:00:03.00
Peak level 98.2 %
Extraction speed 6.5 X
Track quality 100.0 %
Test CRC 0CEC34F2
Copy CRC 0CEC34F2
Accurately ripped (confidence 4) [E49E65A0] (AR v2)
Copy OK
Track 13
Filename S:\EAC\永遠的偶像\13 西城秀樹 - 一万光年の愛.wav
Pre-gap length 0:00:03.00
Peak level 98.3 %
Extraction speed 5.5 X
Track quality 99.9 %
Test CRC 8EC16B04
Copy CRC 8EC16B04
Accurately ripped (confidence 5) [FF2640F6] (AR v2)
Copy OK
Track 14
Filename S:\EAC\永遠的偶像\14 西城秀樹 - Rain of Dream 夢の罪.wav
Pre-gap length 0:00:03.00
Peak level 97.6 %
Extraction speed 6.9 X
Track quality 100.0 %
Test CRC 8C0A147A
Copy CRC 8C0A147A
Accurately ripped (confidence 5) [A2FA01D1] (AR v2)
Copy OK
Track 15
Filename S:\EAC\永遠的偶像\15 西城秀樹 - 若き獅子たち.wav
Pre-gap length 0:00:03.00
Peak level 98.3 %
Extraction speed 7.2 X
Track quality 100.0 %
Test CRC 2AC7ECE7
Copy CRC 2AC7ECE7
Accurately ripped (confidence 4) [72739117] (AR v2)
Copy OK
Track 16
Filename S:\EAC\永遠的偶像\16 西城秀樹 - 勇気があれば.wav
Pre-gap length 0:00:03.00
Peak level 98.2 %
Extraction speed 7.3 X
Track quality 100.0 %
Test CRC 86766E20
Copy CRC 86766E20
Accurately ripped (confidence 4) [4E8DFE81] (AR v2)
Copy OK
Track 17
Filename S:\EAC\永遠的偶像\17 西城秀樹 - いくつもの星が流れ.wav
Pre-gap length 0:00:03.00
Peak level 97.9 %
Extraction speed 5.4 X
Track quality 99.9 %
Test CRC 45D67BFB
Copy CRC 45D67BFB
Accurately ripped (confidence 4) [84BEBB6F] (AR v2)
Copy OK
All tracks accurately ripped
No errors occurred
End of status report
---- CUETools DB Plugin V2.1.6
[CTDB TOCID: Thw_xSZPGpeuXujDz2TFYFKjPRE-] found
Submit result: Thw_xSZPGpeuXujDz2TFYFKjPRE- has been confirmed
Track | CTDB Status
1 | (7/7) Accurately ripped
2 | (7/7) Accurately ripped
3 | (7/7) Accurately ripped
4 | (7/7) Accurately ripped
5 | (7/7) Accurately ripped
6 | (7/7) Accurately ripped
7 | (7/7) Accurately ripped
8 | (7/7) Accurately ripped
9 | (7/7) Accurately ripped
10 | (7/7) Accurately ripped
11 | (7/7) Accurately ripped
12 | (7/7) Accurately ripped
13 | (7/7) Accurately ripped
14 | (7/7) Accurately ripped
15 | (7/7) Accurately ripped
16 | (5/7) Accurately ripped
17 | (7/7) Accurately ripped
==== Log checksum 5941160D432D88EF6BDBA91052D774F0AF5731F179C3F748E8DB8B1F42B18001 ====
 
Содержание индексной карты (.CUE)
REM GENRE Funk
REM DATE 2007
REM DISCID F5110F11
REM COMMENT "ExactAudioCopy v1.3"
PERFORMER "Hideki Saijo"
TITLE "Forever Idol"
FILE "01 - Kizudarake no Lola.wav" WAVE
TRACK 01 AUDIO
TITLE "Kizudarake no Lola"
PERFORMER "Hideki Saijo"
ISRC JPBV07400060
INDEX 01 00:00:00
TRACK 02 AUDIO
TITLE "Dakishimete Jitterbug (Careless Whisper)"
PERFORMER "Hideki Saijo"
ISRC JPBV09310710
INDEX 00 03:06:10
FILE "02 - Dakishimete Jitterbug (Careless Whisper).wav" WAVE
INDEX 01 00:00:00
TRACK 03 AUDIO
TITLE "Ai no Sono"
PERFORMER "Hideki Saijo"
ISRC JPBV08000260
INDEX 00 04:22:69
FILE "03 - Ai no Sono.wav" WAVE
INDEX 01 00:00:00
TRACK 04 AUDIO
TITLE "Blue Sky Blue"
PERFORMER "Hideki Saijo"
ISRC JPBV09310620
INDEX 00 04:18:44
FILE "04 - Blue Sky Blue.wav" WAVE
INDEX 01 00:00:00
TRACK 05 AUDIO
TITLE "Harukanaru Koibito E"
PERFORMER "Hideki Saijo"
ISRC JPBV09310630
INDEX 00 05:12:54
FILE "05 - Harukanaru Koibito E.wav" WAVE
INDEX 01 00:00:00
TRACK 06 AUDIO
TITLE "Gyarandu"
PERFORMER "Hideki Saijo"
ISRC JPBV09310690
INDEX 00 04:28:06
FILE "06 - Gyarandu.wav" WAVE
INDEX 01 00:00:00
TRACK 07 AUDIO
TITLE "Young Man (Y.M.C.A.)"
PERFORMER "Hideki Saijo"
ISRC JPBV07900200
INDEX 00 03:07:46
FILE "07 - Young Man (Y.M.C.A.).wav" WAVE
INDEX 01 00:00:00
TRACK 08 AUDIO
TITLE "Hop! Step! Jump!"
PERFORMER "Hideki Saijo"
ISRC JPBV09310650
INDEX 00 04:43:31
FILE "08 - Hop! Step! Jump!.wav" WAVE
INDEX 01 00:00:00
TRACK 09 AUDIO
TITLE "Honoo"
PERFORMER "Hideki Saijo"
ISRC JPBV09310610
INDEX 00 03:34:00
FILE "09 - Honoo.wav" WAVE
INDEX 01 00:00:00
TRACK 10 AUDIO
TITLE "Tsuioku no Hitomi (Lola)"
PERFORMER "Hideki Saijo"
ISRC JPBV09310740
INDEX 00 04:39:04
FILE "10 - Tsuioku no Hitomi (Lola).wav" WAVE
INDEX 01 00:00:00
TRACK 11 AUDIO
TITLE "Last Scene"
PERFORMER "Hideki Saijo"
ISRC JPBV09310570
INDEX 00 04:10:04
FILE "11 - Last Scene.wav" WAVE
INDEX 01 00:00:00
TRACK 12 AUDIO
TITLE "Minami Jyujisei"
PERFORMER "Hideki Saijo"
ISRC JPBV08200038
INDEX 00 03:47:30
FILE "12 - Minami Jyujisei.wav" WAVE
INDEX 01 00:00:00
TRACK 13 AUDIO
TITLE "Ichiman Konen no Ai"
PERFORMER "Hideki Saijo"
ISRC JPBV09310720
INDEX 00 04:11:08
FILE "13 - Ichiman Konen no Ai.wav" WAVE
INDEX 01 00:00:00
TRACK 14 AUDIO
TITLE "Yume no Tsumi (Rain of Dream)"
PERFORMER "Hideki Saijo"
ISRC JPBV09310750
INDEX 00 04:25:66
FILE "14 - Yume no Tsumi (Rain of Dream).wav" WAVE
INDEX 01 00:00:00
TRACK 15 AUDIO
TITLE "Wakaki shishitachi"
PERFORMER "Hideki Saijo"
ISRC JPBV09402370
INDEX 00 03:44:02
FILE "15 - Wakaki shishitachi.wav" WAVE
INDEX 01 00:00:00
TRACK 16 AUDIO
TITLE "Yuuki ga Areba"
PERFORMER "Hideki Saijo"
ISRC JPBV09502408
INDEX 00 04:46:02
FILE "16 - Yuuki ga Areba.wav" WAVE
INDEX 01 00:00:00
TRACK 17 AUDIO
TITLE "Ikutsu Mono Hoshi ga Nagare"
PERFORMER "Hideki Saijo"
ISRC JPBV09315140
INDEX 00 04:04:61
FILE "17 - Ikutsu Mono Hoshi ga Nagare.wav" WAVE
INDEX 01 00:00:00
 
Отчет CUETools
[CUETools log; Date: 27.02.2018 19:17:23; Version: 2.1.5]
[CTDB TOCID: Thw_xSZPGpeuXujDz2TFYFKjPRE-] found.
Track | CTDB Status
1 | (12/12) Accurately ripped
2 | (12/12) Accurately ripped
3 | (12/12) Accurately ripped
4 | (12/12) Accurately ripped
5 | (12/12) Accurately ripped
6 | (12/12) Accurately ripped
7 | (12/12) Accurately ripped
8 | (12/12) Accurately ripped
9 | (12/12) Accurately ripped
10 | (12/12) Accurately ripped
11 | (12/12) Accurately ripped
12 | (12/12) Accurately ripped
13 | (12/12) Accurately ripped
14 | (12/12) Accurately ripped
15 | (12/12) Accurately ripped
16 | (10/12) Accurately ripped
17 | (12/12) Accurately ripped
[AccurateRip ID: 002c2691-02311b42-f5110f11] found.
Track [ CRC | V2 ] Status
01 [97609772|44b5abeb] (0+6/6) Accurately ripped
02 [6a23ec83|610a3dfb] (0+6/6) Accurately ripped
03 [7a2cdb99|a1e22d74] (0+6/6) Accurately ripped
04 [502cc0c4|958e098c] (0+5/5) Accurately ripped
05 [44a73140|6c0e687f] (0+5/5) Accurately ripped
06 [3c84d0a6|391d9ca4] (0+6/6) Accurately ripped
07 [71ba089f|5773df78] (0+6/6) Accurately ripped
08 [5cc48066|e2ea7d68] (0+6/6) Accurately ripped
09 [654a5f2b|5a871df1] (0+5/5) Accurately ripped
10 [47ba4f72|168172e9] (0+6/6) Accurately ripped
11 [aa23dbbe|068610f8] (0+5/5) Accurately ripped
12 [54bf656f|e49e65a0] (0+5/5) Accurately ripped
13 [66097690|ff2640f6] (0+6/6) Accurately ripped
14 [0ee2d9b4|a2fa01d1] (0+6/6) Accurately ripped
15 [68644dbe|72739117] (0+5/5) Accurately ripped
16 [f40ed51a|4e8dfe81] (0+5/5) Accurately ripped
17 [a98edc77|84bebb6f] (0+5/5) Accurately ripped
Track Peak [ CRC32 ] [W/O NULL] [ LOG ]
-- 98,9 [67EB25E2] [E7453A84]
01 98,4 [B929BA80] [2BC0111B] CRC32
02 98,2 [AAFEB495] [1DD0322F] CRC32
03 98,2 [1552C019] [81BA8DD7] CRC32
04 98,2 [D88C59B6] [7B354914] CRC32
05 98,3 [0EA9ABE0] [0E84DF3F] CRC32
06 98,2 [AA7D2FDD] [A868B9CE] CRC32
07 98,5 [C9A3E47D] [7249437C] CRC32
08 98,0 [88976F64] [49EB6E75] CRC32
09 98,5 [1AAF9968] [B6911C35] CRC32
10 98,9 [1A5A324A] [F10E7A7F] CRC32
11 98,1 [AB454ED1] [695EA231] CRC32
12 98,2 [0CEC34F2] [35D4A6EB] CRC32
13 98,3 [8EC16B04] [84093319] CRC32
14 97,6 [8C0A147A] [13D75C3E] CRC32
15 98,3 [2AC7ECE7] [C268A1AB] CRC32
16 98,2 [86766E20] [79EB6116] CRC32
17 97,9 [45D67BFB] [A4A2B1EC] CRC32
Приватный:
Нет (DHT включён)
Размер:
510.82 Мб (535,630,634 байт) » файлов: 23
Участники:
0 раздают, 0 качают (0 участников всего)
Внешние участники:
1 раздают, 0 качают (1 участников всего) [ Обновить ]
Есть вопросы - пишите личное сообщение пользователю M0p94ok.
15:37
156
Нет комментариев. Ваш будет первым!