Поиск

(Funk, Soul) [CD] Hideki Saijo - Gentle a Man - 1984 (2013 Japan Edition), FLAC (tracks+.cue), lossless

(Funk, Soul) [CD] Hideki Saijo - Gentle a Man - 1984 (2013 Japan Edition), FLAC (tracks+.cue), lossless
Треклист:
Hideki Saijo - Gentle a Man
Жанр: Funk, Soul
Носитель: CD
Страна-производитель диска (релиза): Япония
Год издания: 1984 (2013)
Издатель (лейбл): CS Record/Sony Music Direct
Номер по каталогу: DQCL-1966
Аудиокодек: FLAC (*.flac)
Тип рипа: tracks+.cue
Битрейт аудио: lossless
Продолжительность: 41:44
Источник (релизер): Philly76
Наличие сканов в содержимом раздачи: нет
Треклист:
01. Sentimental Motel (4:17)
02. Onesided Night (4:19)
03. Kanojo wa Fukigen (4:21)
04. Do You Know (3:18)
05. Kikoh (5:03)
06. Through the Night (4:43)
07. Kagirinaki Natsu (3:59)
08. Love Together (4:37)
09. Winter Blue (3:34)
10. Portrait (3:33)
 
Лог создания рипа
Exact Audio Copy V1.3 from 2. September 2016
EAC extraction logfile from 18. January 2018, 9:08
Hideki Saijo / Gentle A Man
Used drive : PIONEER BD-RW BDR-TD03 Adapter: 1 ID: 0
Read mode : Secure
Utilize accurate stream : Yes
Defeat audio cache : Yes
Make use of C2 pointers : No
Read offset correction : 667
Overread into Lead-In and Lead-Out : No
Fill up missing offset samples with silence : Yes
Delete leading and trailing silent blocks : No
Null samples used in CRC calculations : Yes
Used interface : Native Win32 interface for Win NT & 2000
Gap handling : Appended to previous track
Used output format : User Defined Encoder
Selected bitrate : 128 kBit/s
Quality : High
Add ID3 tag : No
Command line compressor : C:\Program Files (x86)\Exact Audio Copy\Flac\flac.exe
Additional command line options : -8 -V -T "ARTIST=%artist%" -T "TITLE=%title%" -T "ALBUM=%albumtitle%" -T "DATE=%year%" -T "TRACKNUMBER=%tracknr%" -T "TOTALTRACKS=%numtracks%" -T "GENRE=%genre%" -T "ALBUMARTIST=%albumartist%" -T "ALBUM ARTIST=%albumartist%" -T "COMMENT=EAC Secure Mode, Test & Copy, AccurateRip, FLAC -8" %source%
TOC of the extracted CD
Track | Start | Length | Start sector | End sector
---------------------------------------------------------
1 | 0:00.00 | 4:16.55 | 0 | 19254
2 | 4:16.55 | 4:18.68 | 19255 | 38672
3 | 8:35.48 | 4:21.11 | 38673 | 58258
4 | 12:56.59 | 3:17.51 | 58259 | 73084
5 | 16:14.35 | 5:02.68 | 73085 | 95802
6 | 21:17.28 | 4:43.14 | 95803 | 117041
7 | 26:00.42 | 3:59.23 | 117042 | 134989
8 | 29:59.65 | 4:36.61 | 134990 | 155750
9 | 34:36.51 | 3:34.00 | 155751 | 171800
10 | 38:10.51 | 3:33.36 | 171801 | 187811
Track 1
Filename C:\Extract\01 - センチメンタル・モーテル.wav
Pre-gap length 0:00:02.00
Peak level 100.0 %
Extraction speed 2.9 X
Track quality 100.0 %
Test CRC 1B09020E
Copy CRC 1B09020E
Track not present in AccurateRip database
Copy OK
Track 2
Filename C:\Extract\02 - Onesided Night.wav
Peak level 100.0 %
Extraction speed 3.2 X
Track quality 100.0 %
Test CRC A45F7E8E
Copy CRC A45F7E8E
Track not present in AccurateRip database
Copy OK
Track 3
Filename C:\Extract\03 - 彼女は不機嫌.wav
Peak level 100.0 %
Extraction speed 3.4 X
Track quality 100.0 %
Test CRC CDF47560
Copy CRC CDF47560
Track not present in AccurateRip database
Copy OK
Track 4
Filename C:\Extract\04 - Do You Know.wav
Pre-gap length 0:00:02.22
Peak level 100.0 %
Extraction speed 3.5 X
Track quality 100.0 %
Test CRC 20CA8CA2
Copy CRC 20CA8CA2
Track not present in AccurateRip database
Copy OK
Track 5
Filename C:\Extract\05 - 帰港.wav
Pre-gap length 0:00:00.73
Peak level 100.0 %
Extraction speed 3.9 X
Track quality 100.0 %
Test CRC 84D9B046
Copy CRC 84D9B046
Track not present in AccurateRip database
Copy OK
Track 6
Filename C:\Extract\06 - Through The Night.wav
Pre-gap length 0:00:02.24
Peak level 100.0 %
Extraction speed 3.7 X
Track quality 99.9 %
Test CRC DCDAD2E3
Copy CRC DCDAD2E3
Track not present in AccurateRip database
Copy OK
Track 7
Filename C:\Extract\07 - かぎりなき夏.wav
Peak level 100.0 %
Extraction speed 4.3 X
Track quality 100.0 %
Test CRC D8E7AF06
Copy CRC D8E7AF06
Track not present in AccurateRip database
Copy OK
Track 8
Filename C:\Extract\08 - Love・Together.wav
Pre-gap length 0:00:01.10
Peak level 100.0 %
Extraction speed 4.4 X
Track quality 100.0 %
Test CRC CC170FF3
Copy CRC CC170FF3
Track not present in AccurateRip database
Copy OK
Track 9
Filename C:\Extract\09 - Winter Blue.wav
Peak level 100.0 %
Extraction speed 4.5 X
Track quality 100.0 %
Test CRC FA83ADD7
Copy CRC FA83ADD7
Track not present in AccurateRip database
Copy OK
Track 10
Filename C:\Extract\10 - ポートレート.wav
Pre-gap length 0:00:01.11
Peak level 100.0 %
Extraction speed 4.0 X
Track quality 99.9 %
Test CRC 3C25613D
Copy CRC 3C25613D
Track not present in AccurateRip database
Copy OK
None of the tracks are present in the AccurateRip database
No errors occurred
End of status report
---- CUETools DB Plugin V2.1.6
[CTDB TOCID: 7kzdm_G9SkWEd825R06Q_rNkzIE-] database access error: Le nom distant n'a pas pu être résolu: 'db.cuetools.net'
==== Log checksum 32299F605E822256E1573D8E8228B687FA5F31C7E07C5184F5D893FFDE5BCCF7 ====
 
Содержание индексной карты (.CUE)
REM GENRE Funk
REM DATE 1984
REM DISCID 9509C80A
REM COMMENT "ExactAudioCopy v1.3"
PERFORMER "Hideki Saijo"
TITLE "Gentle a Man"
FILE "01 - Sentimental Motel.wav" WAVE
TRACK 01 AUDIO
TITLE "Sentimental Motel"
PERFORMER "Hideki Saijo"
INDEX 01 00:00:00
FILE "02 - Onesided Night.wav" WAVE
TRACK 02 AUDIO
TITLE "Onesided Night"
PERFORMER "Hideki Saijo"
INDEX 01 00:00:00
FILE "03 - Kanojo wa Fukigen.wav" WAVE
TRACK 03 AUDIO
TITLE "Kanojo wa Fukigen"
PERFORMER "Hideki Saijo"
INDEX 01 00:00:00
TRACK 04 AUDIO
TITLE "Do You Know"
PERFORMER "Hideki Saijo"
INDEX 00 04:18:64
FILE "04 - Do You Know.wav" WAVE
INDEX 01 00:00:00
TRACK 05 AUDIO
TITLE "Kikoh"
PERFORMER "Hideki Saijo"
INDEX 00 03:16:53
FILE "05 - Kikoh.wav" WAVE
INDEX 01 00:00:00
TRACK 06 AUDIO
TITLE "Through the Night"
PERFORMER "Hideki Saijo"
INDEX 00 05:00:44
FILE "06 - Through the Night.wav" WAVE
INDEX 01 00:00:00
FILE "07 - Kagirinaki Natsu.wav" WAVE
TRACK 07 AUDIO
TITLE "Kagirinaki Natsu"
PERFORMER "Hideki Saijo"
INDEX 01 00:00:00
TRACK 08 AUDIO
TITLE "Love Together"
PERFORMER "Hideki Saijo"
INDEX 00 03:58:13
FILE "08 - Love Together.wav" WAVE
INDEX 01 00:00:00
FILE "09 - Winter Blue.wav" WAVE
TRACK 09 AUDIO
TITLE "Winter Blue"
PERFORMER "Hideki Saijo"
INDEX 01 00:00:00
TRACK 10 AUDIO
TITLE "Portrait"
PERFORMER "Hideki Saijo"
INDEX 00 03:32:64
FILE "10 - Portrait.wav" WAVE
INDEX 01 00:00:00
Приватный:
Нет (DHT включён)
Размер:
264.83 Мб (277,698,639 байт) » файлов: 15
Участники:
0 раздают, 0 качают (0 участников всего)
Внешние участники:
5 раздают, 2 качают (7 участников всего) [ Обновить ]
Есть вопросы - пишите личное сообщение пользователю M0p94ok.
15:36
72
Нет комментариев. Ваш будет первым!