Поиск

(Jazz-Funk, Jazz-Rock) [CD] Nobuyuki Shimizu - Corner Top - 1980 (2013 Japan Edition), FLAC (tracks+.cue), lossless

(Jazz-Funk, Jazz-Rock) [CD] Nobuyuki Shimizu - Corner Top - 1980 (2013 Japan Edition), FLAC (tracks+.cue), lossless
Треклист:
Nobuyuki Shimizu - Corner Top
Жанр: Jazz-Funk, Jazz-Rock
Носитель: CD
Страна-производитель диска (релиза): Япония
Год издания: 1980 (2013)
Издатель (лейбл): King Record Co. Ltd
Номер по каталогу: NKCD-6636
Аудиокодек: FLAC (*.flac)
Тип рипа: tracks+.cue
Битрейт аудио: lossless
Продолжительность: 43:01
Источник (релизер): mvns
Наличие сканов в содержимом раздачи: да
Треклист:
01. Corner Top (3:47)
02. Crazy Knife (4:13)
03. Promise to Meet You Again (6:34)
04. Punk Interlude (1:50)
05. What the World Need Now Is Love (5:07)
06. N.Y. Times (5:28)
07. Konuka-Ame (4:16)
08. Silver Spot (4:27)
09. Popeye the Sailorman (0:46)
10. Ryusei (4:25)
11. Good Times (Epilogue) (2:08)
 
Лог создания рипа
X Lossless Decoder version 20170729 (150.3)
XLD extraction logfile from 2018-02-05 20:30:22 -0800
Nobuyuki Shimizu (清水信之) / Corner Top
Used drive : TSSTcorp CDDVDW SE-218CB (revision MF00)
Media type : Pressed CD
Ripper mode : XLD Secure Ripper
Disable audio cache : OK for the drive with a cache less than 1375KiB
Make use of C2 pointers : NO
Read offset correction : 6
Max retry count : 100
Gap status : Analyzed, Appended (except HTOA)
TOC of the extracted CD
Track | Start | Length | Start sector | End sector
---------------------------------------------------------
1 | 00:00:00 | 03:46:68 | 0 | 17017
2 | 03:46:68 | 04:13:35 | 17018 | 36027
3 | 08:00:28 | 06:33:71 | 36028 | 65573
4 | 14:34:24 | 01:49:62 | 65574 | 73810
5 | 16:24:11 | 05:06:72 | 73811 | 96832
6 | 21:31:08 | 05:28:35 | 96833 | 121467
7 | 26:59:43 | 04:15:58 | 121468 | 140650
8 | 31:15:26 | 04:26:56 | 140651 | 160656
9 | 35:42:07 | 00:46:15 | 160657 | 164121
10 | 36:28:22 | 04:25:22 | 164122 | 184018
11 | 40:53:44 | 02:08:08 | 184019 | 193626
AccurateRip Summary
Disc not found in AccurateRip DB.
All Tracks
Album gain : -7.58 dB
Peak : 0.999054
Statistics
Read error : 0
Jitter error (maybe fixed) : 0
Retry sector count : 0
Damaged sector count : 0
Track 01
Filename : /Volumes/Multimedia 1/XLD/Nobuyuki Shimizu (清水信之) - (1980) Corner Top [FLAC]/01 - Nobuyuki Shimizu (清水信之) - Corner Top.flac
Pre-gap length : 00:02:00
Track gain : -8.10 dB
Peak : 0.998993
CRC32 hash (test run) : B0718C15
CRC32 hash : B0718C15
CRC32 hash (skip zero) : 62560216
AccurateRip v1 signature : 3FE82A5D
AccurateRip v2 signature : 53029BFF
->Track not present in AccurateRip database.
Statistics
Read error : 0
Jitter error (maybe fixed) : 0
Retry sector count : 0
Damaged sector count : 0
Track 02
Filename : /Volumes/Multimedia 1/XLD/Nobuyuki Shimizu (清水信之) - (1980) Corner Top [FLAC]/02 - Nobuyuki Shimizu (清水信之) - Crazy Knife.flac
Track gain : -8.85 dB
Peak : 0.999023
CRC32 hash (test run) : C4437D89
CRC32 hash : C4437D89
CRC32 hash (skip zero) : 117061E6
AccurateRip v1 signature : 646F91E2
AccurateRip v2 signature : 60D5B5D9
->Track not present in AccurateRip database.
Statistics
Read error : 0
Jitter error (maybe fixed) : 0
Retry sector count : 0
Damaged sector count : 0
Track 03
Filename : /Volumes/Multimedia 1/XLD/Nobuyuki Shimizu (清水信之) - (1980) Corner Top [FLAC]/03 - Nobuyuki Shimizu (清水信之) - Promise To Meet You Again.flac
Track gain : -8.00 dB
Peak : 0.998993
CRC32 hash (test run) : 30C1555E
CRC32 hash : 30C1555E
CRC32 hash (skip zero) : D656987A
AccurateRip v1 signature : 7464276D
AccurateRip v2 signature : BDAADCD8
->Track not present in AccurateRip database.
Statistics
Read error : 0
Jitter error (maybe fixed) : 0
Retry sector count : 0
Damaged sector count : 0
Track 04
Filename : /Volumes/Multimedia 1/XLD/Nobuyuki Shimizu (清水信之) - (1980) Corner Top [FLAC]/04 - Nobuyuki Shimizu (清水信之) - Punk Interlude.flac
Track gain : -5.16 dB
Peak : 0.998993
CRC32 hash (test run) : 8A17EE83
CRC32 hash : 8A17EE83
CRC32 hash (skip zero) : 0F41A6D2
AccurateRip v1 signature : DFF6AEA1
AccurateRip v2 signature : BCD976BB
->Track not present in AccurateRip database.
Statistics
Read error : 0
Jitter error (maybe fixed) : 0
Retry sector count : 0
Damaged sector count : 0
Track 05
Filename : /Volumes/Multimedia 1/XLD/Nobuyuki Shimizu (清水信之) - (1980) Corner Top [FLAC]/05 - Nobuyuki Shimizu (清水信之) - What The World Need Now Is Love.flac
Track gain : -7.10 dB
Peak : 0.999023
CRC32 hash (test run) : EA5248A8
CRC32 hash : EA5248A8
CRC32 hash (skip zero) : 89FCCC67
AccurateRip v1 signature : 539A8587
AccurateRip v2 signature : B676F94A
->Track not present in AccurateRip database.
Statistics
Read error : 0
Jitter error (maybe fixed) : 0
Retry sector count : 0
Damaged sector count : 0
Track 06
Filename : /Volumes/Multimedia 1/XLD/Nobuyuki Shimizu (清水信之) - (1980) Corner Top [FLAC]/06 - Nobuyuki Shimizu (清水信之) - N.Y. Times.flac
Track gain : -7.84 dB
Peak : 0.999054
CRC32 hash (test run) : 3EAD58F5
CRC32 hash : 3EAD58F5
CRC32 hash (skip zero) : B579A659
AccurateRip v1 signature : 85C47B28
AccurateRip v2 signature : 3423A435
->Track not present in AccurateRip database.
Statistics
Read error : 0
Jitter error (maybe fixed) : 0
Retry sector count : 0
Damaged sector count : 0
Track 07
Filename : /Volumes/Multimedia 1/XLD/Nobuyuki Shimizu (清水信之) - (1980) Corner Top [FLAC]/07 - Nobuyuki Shimizu (清水信之) - Konuka-Ame.flac
Pre-gap length : 00:00:58
Track gain : -8.52 dB
Peak : 0.998993
CRC32 hash (test run) : 2D2AAF70
CRC32 hash : 2D2AAF70
CRC32 hash (skip zero) : BCCBEC8E
AccurateRip v1 signature : 173AB206
AccurateRip v2 signature : C4CACF35
->Track not present in AccurateRip database.
Statistics
Read error : 0
Jitter error (maybe fixed) : 0
Retry sector count : 0
Damaged sector count : 0
Track 08
Filename : /Volumes/Multimedia 1/XLD/Nobuyuki Shimizu (清水信之) - (1980) Corner Top [FLAC]/08 - Nobuyuki Shimizu (清水信之) - Silver Spot.flac
Track gain : -6.03 dB
Peak : 0.998993
CRC32 hash (test run) : D3CE7CE9
CRC32 hash : D3CE7CE9
CRC32 hash (skip zero) : 97C7FD7B
AccurateRip v1 signature : E9A8FC98
AccurateRip v2 signature : 70F96E03
->Track not present in AccurateRip database.
Statistics
Read error : 0
Jitter error (maybe fixed) : 0
Retry sector count : 0
Damaged sector count : 0
Track 09
Filename : /Volumes/Multimedia 1/XLD/Nobuyuki Shimizu (清水信之) - (1980) Corner Top [FLAC]/09 - Nobuyuki Shimizu (清水信之) - Popeye The Sailorman.flac
Track gain : -2.88 dB
Peak : 0.918610
CRC32 hash (test run) : 7D808CA2
CRC32 hash : 7D808CA2
CRC32 hash (skip zero) : EB15A7D6
AccurateRip v1 signature : 9D08C3CB
AccurateRip v2 signature : 4764C262
->Track not present in AccurateRip database.
Statistics
Read error : 0
Jitter error (maybe fixed) : 0
Retry sector count : 0
Damaged sector count : 0
Track 10
Filename : /Volumes/Multimedia 1/XLD/Nobuyuki Shimizu (清水信之) - (1980) Corner Top [FLAC]/10 - Nobuyuki Shimizu (清水信之) - Ryusei.flac
Track gain : -6.72 dB
Peak : 0.999023
CRC32 hash (test run) : 13494DA5
CRC32 hash : 13494DA5
CRC32 hash (skip zero) : 7FD2EBF3
AccurateRip v1 signature : A97F9626
AccurateRip v2 signature : 55BDCACF
->Track not present in AccurateRip database.
Statistics
Read error : 0
Jitter error (maybe fixed) : 0
Retry sector count : 0
Damaged sector count : 0
Track 11
Filename : /Volumes/Multimedia 1/XLD/Nobuyuki Shimizu (清水信之) - (1980) Corner Top [FLAC]/11 - Nobuyuki Shimizu (清水信之) - Good Times (Epilogue).flac
Pre-gap length : 00:00:56
Track gain : -0.93 dB
Peak : 0.652802
CRC32 hash (test run) : E572030D
CRC32 hash : E572030D
CRC32 hash (skip zero) : 09089E22
AccurateRip v1 signature : CD8214D3
AccurateRip v2 signature : 0BAC9739
->Track not present in AccurateRip database.
Statistics
Read error : 0
Jitter error (maybe fixed) : 0
Retry sector count : 0
Damaged sector count : 0
No errors occurred
End of status report
-----BEGIN XLD SIGNATURE-----
34eQcOilMXOtwdbJ7rAmzf3wJbkx1vi.9qqMd5fPU9cjBNELrv.5yv6CN8zbCY.jxmzyoqf99APsLP4pA1hSGzI9btVM1jFtxwDZ4cm
-----END XLD SIGNATURE-----
 
Содержание индексной карты (.CUE)
TITLE "Corner Top"
PERFORMER "Nobuyuki Shimizu"
REM GENRE "Funk"
REM DATE "1980"
REM DISCID 9F0A150B
REM REPLAYGAIN_ALBUM_GAIN -7.58 dB
REM REPLAYGAIN_ALBUM_PEAK 0.999054
FILE "01 - Corner Top.flac" WAVE
TRACK 01 AUDIO
TITLE "Corner Top"
ISRC JPKI07973611
REM REPLAYGAIN_TRACK_GAIN -8.10 dB
REM REPLAYGAIN_TRACK_PEAK 0.998993
INDEX 01 00:00:00
FILE "02 - Crazy Knife.flac" WAVE
TRACK 02 AUDIO
TITLE "Crazy Knife"
ISRC JPKI07973613
REM REPLAYGAIN_TRACK_GAIN -8.85 dB
REM REPLAYGAIN_TRACK_PEAK 0.999023
INDEX 01 00:00:00
FILE "03 - Promise to Meet You Again.flac" WAVE
TRACK 03 AUDIO
TITLE "Promise to Meet You Again"
ISRC JPKI07973620
REM REPLAYGAIN_TRACK_GAIN -8.00 dB
REM REPLAYGAIN_TRACK_PEAK 0.998993
INDEX 01 00:00:00
FILE "04 - Punk Interlude.flac" WAVE
TRACK 04 AUDIO
TITLE "Punk Interlude"
ISRC JPKI07973614
REM REPLAYGAIN_TRACK_GAIN -5.16 dB
REM REPLAYGAIN_TRACK_PEAK 0.998993
INDEX 01 00:00:00
FILE "05 - What the World Need Now Is Love.flac" WAVE
TRACK 05 AUDIO
TITLE "What the World Need Now Is Love"
ISRC JPKI07973615
REM REPLAYGAIN_TRACK_GAIN -7.10 dB
REM REPLAYGAIN_TRACK_PEAK 0.999023
INDEX 01 00:00:00
FILE "06 - N.Y. Times.flac" WAVE
TRACK 06 AUDIO
TITLE "N.Y. Times"
ISRC JPKI07973616
REM REPLAYGAIN_TRACK_GAIN -7.84 dB
REM REPLAYGAIN_TRACK_PEAK 0.999054
INDEX 01 00:00:00
TRACK 07 AUDIO
TITLE "Konuka-Ame"
ISRC JPKI07973618
REM REPLAYGAIN_TRACK_GAIN -8.52 dB
REM REPLAYGAIN_TRACK_PEAK 0.998993
INDEX 00 05:27:52
FILE "07 - Konuka-Ame.flac" WAVE
INDEX 01 00:00:00
FILE "08 - Silver Spot.flac" WAVE
TRACK 08 AUDIO
TITLE "Silver Spot"
ISRC JPKI07973612
REM REPLAYGAIN_TRACK_GAIN -6.03 dB
REM REPLAYGAIN_TRACK_PEAK 0.998993
INDEX 01 00:00:00
FILE "09 - Popeye the Sailorman.flac" WAVE
TRACK 09 AUDIO
TITLE "Popeye the Sailorman"
ISRC JPKI07973619
REM REPLAYGAIN_TRACK_GAIN -2.88 dB
REM REPLAYGAIN_TRACK_PEAK 0.918610
INDEX 01 00:00:00
FILE "10 - Ryusei.flac" WAVE
TRACK 10 AUDIO
TITLE "Ryusei"
ISRC JPKI07973617
REM REPLAYGAIN_TRACK_GAIN -6.72 dB
REM REPLAYGAIN_TRACK_PEAK 0.999023
INDEX 01 00:00:00
TRACK 11 AUDIO
TITLE "Good Times (Epilogue)"
ISRC JPKI07973621
REM REPLAYGAIN_TRACK_GAIN -0.93 dB
REM REPLAYGAIN_TRACK_PEAK 0.652802
INDEX 00 04:24:41
FILE "11 - Good Times (Epilogue).flac" WAVE
INDEX 01 00:00:00
 
Состав
Shuichi "Ponta" Murakami, Yuichi Togashiki, Yutaka Uehara, Martin Willweber, Nobuyuki Shimizu - drums
Kenji Ohmura, Junshi Yamagishi, Katsutoshi Morizono, Tohru Aoyama, Tokuo Nakano, Tsunehide Matsuki, Nobuyuki Shimizu - guitar
Ray Ohara, Kenji Takamizu, Akihiro Tanaka, Tetsuo Sakurai, Nobuyuki Shimizu - bass guitar
Pecker, Mac Shimizu, Nobuo Saito, Nobuyuki Shimizu - percussion
EPO, Mariya Takeuchi, Peter - chorus
Nobuyuki Shimizu - vocals
Shin Kazuhara, Masayuki Kurita - trumpet
Yasuaki Shimizu, Satoshi Nakamura - tenor saxophone
Shunzo Sunahara - baritone saxophone
Nobuyuki Shimizu - keyboards
Recorded at Sound City, Take One, Onkio Haus.
Приватный:
Нет (DHT включён)
Размер:
275.77 Мб (289,165,012 байт) » файлов: 22
Участники:
0 раздают, 0 качают (0 участников всего)
Внешние участники:
3 раздают, 1 качают (4 участников всего) [ Обновить ]
Есть вопросы - пишите личное сообщение пользователю M0p94ok.
15:38
52
Нет комментариев. Ваш будет первым!