Поиск

(Jazz, Bop,Soul) [CD] Soil & Pimp Sessions - A Night in South Blue Mountain - 2015, FLAC (tracks), lossless

(Jazz, Bop,Soul) [CD] Soil & Pimp Sessions - A Night in South Blue Mountain - 2015, FLAC (tracks), lossless
Треклист:
Soil & Pimp Sessions / A Night in South Blue Mountain
Жанр: Jazz, Bop,Soul
Носитель: CD
Страна-производитель диска (релиза): Japan
Год издания: 2015
Издатель (лейбл): Victor
Номер по каталогу: VICL-70190
Страна исполнителя (группы): Japan
Аудиокодек: FLAC (*.flac)
Тип рипа: tracks
Битрейт аудио: lossless
Продолжительность: 00:58:59
Источник (релизер): mplester
Наличие сканов в содержимом раздачи: нет
Треклист:
1.Suffocation 4:49
2.Jazz Crime 8:26
3.First Lady 8:35
4.Mr. Clean 9:29
5.Montara 7:31
6.Una Mas 9:59
7.Spartacus Love Theme 10:07
 
Лог EAC
Exact Audio Copy V1.0 beta 3 from 29. August 2011
EAC extraction logfile from 20. May 2016, 10:39
SOIL&"PIMP"SESSIONS / A NIGHT IN SOUTH BLUE MOUNTAIN [Live]
Used drive : HL-DT-STDVDRAM GSA-H42L Adapter: 2 ID: 1
Read mode : Secure
Utilize accurate stream : Yes
Defeat audio cache : Yes
Make use of C2 pointers : No
Read offset correction : 667
Overread into Lead-In and Lead-Out : No
Fill up missing offset samples with silence : Yes
Delete leading and trailing silent blocks : No
Null samples used in CRC calculations : Yes
Used interface : Native Win32 interface for Win NT & 2000
Gap handling : Appended to previous track
Used output format : User Defined Encoder
Selected bitrate : 896 kBit/s
Quality : High
Add ID3 tag : No
Command line compressor : C:\Program Files (x86)\Exact Audio Copy\Flac\flac.exe
Additional command line options : -8 -V -T "artist=%artist%" -T "title=%title%" -T "album=%albumtitle%" -T "date=%year%" -T "tracknumber=%tracknr%" -T "genre=%genre%" %source%
TOC of the extracted CD
Track | Start | Length | Start sector | End sector
---------------------------------------------------------
1 | 0:00.00 | 4:49.52 | 0 | 21726
2 | 4:49.52 | 8:26.50 | 21727 | 59726
3 | 13:16.27 | 8:34.73 | 59727 | 98349
4 | 21:51.25 | 9:29.15 | 98350 | 141039
5 | 31:20.40 | 7:31.05 | 141040 | 174869
6 | 38:51.45 | 9:59.40 | 174870 | 219834
7 | 48:51.10 | 10:07.40 | 219835 | 265399
Track 1
Filename C:\EAC\Soil & Pimp Sessions - A Night in South Blue Mountain\01 Suffocation [Live].wav
Pre-gap length 0:00:02.00
Peak level 99.0 %
Extraction speed 2.8 X
Track quality 100.0 %
Test CRC 83827A9D
Copy CRC 83827A9D
Accurately ripped (confidence 1) [A807B22A] (AR v2)
Copy OK
Track 2
Filename C:\EAC\Soil & Pimp Sessions - A Night in South Blue Mountain\02 Jazz Crime [Live].wav
Peak level 99.0 %
Extraction speed 3.5 X
Track quality 100.0 %
Test CRC 32C8916B
Copy CRC 32C8916B
Accurately ripped (confidence 1) [C271376C] (AR v2)
Copy OK
Track 3
Filename C:\EAC\Soil & Pimp Sessions - A Night in South Blue Mountain\03 First Lady [Live].wav
Peak level 100.0 %
Extraction speed 4.1 X
Track quality 100.0 %
Test CRC F3D55712
Copy CRC F3D55712
Accurately ripped (confidence 1) [9BE08A53] (AR v2)
Copy OK
Track 4
Filename C:\EAC\Soil & Pimp Sessions - A Night in South Blue Mountain\04 Mr. Clean [Live].wav
Peak level 100.0 %
Extraction speed 4.6 X
Track quality 100.0 %
Test CRC 0F659A26
Copy CRC 0F659A26
Accurately ripped (confidence 1) [03A4C08A] (AR v2)
Copy OK
Track 5
Filename C:\EAC\Soil & Pimp Sessions - A Night in South Blue Mountain\05 Montara [Live].wav
Peak level 98.9 %
Extraction speed 4.9 X
Track quality 100.0 %
Test CRC 75E76F96
Copy CRC 75E76F96
Accurately ripped (confidence 1) [51A70999] (AR v2)
Copy OK
Track 6
Filename C:\EAC\Soil & Pimp Sessions - A Night in South Blue Mountain\06 Una Mas [Live].wav
Peak level 100.0 %
Extraction speed 5.4 X
Track quality 100.0 %
Test CRC E620E543
Copy CRC E620E543
Accurately ripped (confidence 1) [242CF329] (AR v2)
Copy OK
Track 7
Filename C:\EAC\Soil & Pimp Sessions - A Night in South Blue Mountain\07 Spartacus Love Theme [Live].wav
Peak level 99.3 %
Extraction speed 5.9 X
Track quality 100.0 %
Test CRC EF8166C1
Copy CRC EF8166C1
Accurately ripped (confidence 1) [7740A06B] (AR v2)
Copy OK
All tracks accurately ripped
No errors occurred
End of status report
---- CUETools DB Plugin V2.1.3
[CTDB TOCID: VVsP4NtTU6HCA6OQRdJROq4nujc-] found, Submit result: already submitted
[94d8943e] (11/11) Accurately ripped
==== Log checksum 915DAA7D98F63F2FB0B6C2DFB7DE1F905DCE0D2982DD6D4B8791D25953879B40 ====
Приватный:
Нет (DHT включён)
Размер:
373.27 Мб (391,402,730 байт) » файлов: 10
Участники:
37 раздают, 0 качают (37 участников всего)
Внешние участники:
3 раздают, 1 качают (4 участников всего) [ Обновить ]
No seeders - write personal message to user M0p94ok. Нет сидеров - пишите личное сообщение пользователю M0p94ok.
15:39
58
Нет комментариев. Ваш будет первым!