Вы используете незарегистрированную версию компонента "Вкладки"!

Поиск

(Tzadik, Dub, Fusion, Experimental) David Solid Gould vs Bill Laswell - Dub of the Passover - 2011, FLAC (tracks+.cue), lossless

(Tzadik, Dub, Fusion, Experimental) David Solid Gould vs Bill Laswell - Dub of the Passover - 2011, FLAC (tracks+.cue), lossless
Треклист:
David Solid Gould vs Bill Laswell
Dub of the Passover
Жанр: Tzadik, Dub, Fusion, Experimental
Страна-производитель диска: USA
Год издания диска: 2011
Издатель (лейбл): Tzadik Records
Номер по каталогу: TZ8159
Аудиокодек: FLAC (*.flac)
Тип рипа: tracks+.cue
Битрейт аудио: lossless
Продолжительность: 47:06
Наличие сканов в содержимом раздачи: да
Источник (релизер): demonoid, thanks bradpito
Треклист:
01. Divine Dub
02. Dub of Affliction
03. Dub Questions
04. Dub Plagues
05. Jah Dub
06. Dub is Mighty
07. Who Knows Dub?
08. Goat's Dub
09. May the Dub Arise
10. Once We Were Dub
11. Peace Dub
12. Next Dub In Jerusalem
 
Состав
Bill Laswell - Dub Translations
David Solid Gould - Electric Bass, Double Bass, Nyabinghi, Vocals (1, 11)
JP Nawn - Nyabinghi
William McKenna - Guitar
Jonathan Petronzio - Organ, Clavinet
Ryan Zawel - Trombone
Mark Wienand - Baritone Saxophone, Tenor Saxophone , Flute
Mike Keenan - Rhythm Guitar
Tommy Benedetti - Drums
& many guests
 
Лог EAC
Exact Audio Copy V1.0 beta 2 from 29. April 2011
EAC extraction logfile from 15. October 2011, 1:30
David Solid Gould Vs Bill Laswell / Dub of the Passover
Used drive : PLEXTOR DVDR PX-810SA Adapter: 2 ID: 0
Read mode : Secure
Utilize accurate stream : Yes
Defeat audio cache : Yes
Make use of C2 pointers : No
Read offset correction : 48
Overread into Lead-In and Lead-Out : No
Fill up missing offset samples with silence : Yes
Delete leading and trailing silent blocks : No
Null samples used in CRC calculations : Yes
Used interface : Native Win32 interface for Win NT & 2000
Gap handling : Appended to previous track
Used output format : User Defined Encoder
Selected bitrate : 256 kBit/s
Quality : High
Add ID3 tag : No
Command line compressor : C:\Archivos de programa\Exact Audio Copy\Flac\flac.exe
Additional command line options : -8 -V -T "ARTIST=%artist%" -T "TITLE=%title%" -T "ALBUM=%albumtitle%" -T "DATE=%year%" -T "TRACKNUMBER=%tracknr%" -T "TOTALTRACKS=%numtracks%" -T "GENRE=%genre%" -T "ALBUMARTIST=%albumartist%" -T "ALBUM ARTIST=%albumartist%
TOC of the extracted CD
Track | Start | Length | Start sector | End sector
---------------------------------------------------------
1 | 0:00.00 | 5:33.74 | 0 | 25048
2 | 5:33.74 | 3:43.58 | 25049 | 41831
3 | 9:17.57 | 3:20.50 | 41832 | 56881
4 | 12:38.32 | 4:59.45 | 56882 | 79351
5 | 17:38.02 | 3:23.33 | 79352 | 94609
6 | 21:01.35 | 3:38.64 | 94610 | 111023
7 | 24:40.24 | 4:12.07 | 111024 | 129930
8 | 28:52.31 | 3:18.63 | 129931 | 144843
9 | 32:11.19 | 3:48.33 | 144844 | 161976
10 | 35:59.52 | 2:39.02 | 161977 | 173903
11 | 38:38.54 | 3:46.54 | 173904 | 190907
12 | 42:25.33 | 4:40.03 | 190908 | 211910
Track 1
Filename C:\audio-rips\01 - Divine Dub.wav
Pre-gap length 0:00:02.00
Peak level 94.2 %
Extraction speed 4.3 X
Track quality 99.9 %
Test CRC 75A7B13E
Copy CRC 75A7B13E
Track not present in AccurateRip database
Copy OK
Track 2
Filename C:\audio-rips\02 - Dub of Affliction.wav
Peak level 93.3 %
Extraction speed 4.4 X
Track quality 99.9 %
Test CRC D55169C6
Copy CRC D55169C6
Track not present in AccurateRip database
Copy OK
Track 3
Filename C:\audio-rips\03 - Dub Questions.wav
Peak level 93.3 %
Extraction speed 5.2 X
Track quality 100.0 %
Test CRC F872B821
Copy CRC F872B821
Track not present in AccurateRip database
Copy OK
Track 4
Filename C:\audio-rips\04 - Dub Plagues.wav
Peak level 93.3 %
Extraction speed 5.9 X
Track quality 100.0 %
Test CRC 54C01EDC
Copy CRC 54C01EDC
Track not present in AccurateRip database
Copy OK
Track 5
Filename C:\audio-rips\05 - Jah Dub.wav
Peak level 93.3 %
Extraction speed 5.9 X
Track quality 100.0 %
Test CRC 253E41B2
Copy CRC 253E41B2
Track not present in AccurateRip database
Copy OK
Track 6
Filename C:\audio-rips\06 - Dub is Mighty.wav
Peak level 93.3 %
Extraction speed 6.3 X
Track quality 100.0 %
Test CRC 37EDE07E
Copy CRC 37EDE07E
Track not present in AccurateRip database
Copy OK
Track 7
Filename C:\audio-rips\07 - Who Knows Dub.wav
Peak level 93.3 %
Extraction speed 6.7 X
Track quality 100.0 %
Test CRC D553A29C
Copy CRC D553A29C
Track not present in AccurateRip database
Copy OK
Track 8
Filename C:\audio-rips\08 - Goat's Dub.wav
Peak level 93.3 %
Extraction speed 5.9 X
Track quality 99.9 %
Test CRC 0A99C500
Copy CRC 0A99C500
Track not present in AccurateRip database
Copy OK
Track 9
Filename C:\audio-rips\09 - May the Dub Arise.wav
Peak level 93.3 %
Extraction speed 7.0 X
Track quality 100.0 %
Test CRC CF26B95F
Copy CRC CF26B95F
Track not present in AccurateRip database
Copy OK
Track 10
Filename C:\audio-rips\10 - Once We Were Dub.wav
Peak level 93.3 %
Extraction speed 5.8 X
Track quality 99.9 %
Test CRC A7ACD426
Copy CRC A7ACD426
Track not present in AccurateRip database
Copy OK
Track 11
Filename C:\audio-rips\11 - Peace Dub.wav
Peak level 93.3 %
Extraction speed 6.6 X
Track quality 99.9 %
Test CRC 2172BA59
Copy CRC 2172BA59
Track not present in AccurateRip database
Copy OK
Track 12
Filename C:\audio-rips\12 - Next Dub In Jerusalem.wav
Peak level 93.3 %
Extraction speed 7.9 X
Track quality 100.0 %
Test CRC F6320C31
Copy CRC F6320C31
Track not present in AccurateRip database
Copy OK
None of the tracks are present in the AccurateRip database
No errors occurred
End of status report
==== Log checksum 776894CB09169F38BF0527599A2776F1FBF19033AC7BA56F260682AE58F5777A ====
 
Содержание индексной карты (.CUE)
REM GENRE Reggae
REM DATE 2011
REM DISCID 910B090C
REM COMMENT "ExactAudioCopy v1.0b2"
PERFORMER "David Solid Gould Vs Bill Laswell"
TITLE "Dub of the Passover"
FILE "01 - Divine Dub.wav" WAVE
TRACK 01 AUDIO
TITLE "Divine Dub"
PERFORMER "David Solid Gould Vs Bill Laswell"
INDEX 01 00:00:00
FILE "02 - Dub of Affliction.wav" WAVE
TRACK 02 AUDIO
TITLE "Dub of Affliction"
PERFORMER "David Solid Gould Vs Bill Laswell"
INDEX 01 00:00:00
FILE "03 - Dub Questions.wav" WAVE
TRACK 03 AUDIO
TITLE "Dub Questions"
PERFORMER "David Solid Gould Vs Bill Laswell"
INDEX 01 00:00:00
FILE "04 - Dub Plagues.wav" WAVE
TRACK 04 AUDIO
TITLE "Dub Plagues"
PERFORMER "David Solid Gould Vs Bill Laswell"
INDEX 01 00:00:00
FILE "05 - Jah Dub.wav" WAVE
TRACK 05 AUDIO
TITLE "Jah Dub"
PERFORMER "David Solid Gould Vs Bill Laswell"
INDEX 01 00:00:00
FILE "06 - Dub is Mighty.wav" WAVE
TRACK 06 AUDIO
TITLE "Dub is Mighty"
PERFORMER "David Solid Gould Vs Bill Laswell"
INDEX 01 00:00:00
FILE "07 - Who Knows Dub.wav" WAVE
TRACK 07 AUDIO
TITLE "Who Knows Dub?"
PERFORMER "David Solid Gould Vs Bill Laswell"
INDEX 01 00:00:00
FILE "08 - Goat's Dub.wav" WAVE
TRACK 08 AUDIO
TITLE "Goat's Dub"
PERFORMER "David Solid Gould Vs Bill Laswell"
INDEX 01 00:00:00
FILE "09 - May the Dub Arise.wav" WAVE
TRACK 09 AUDIO
TITLE "May the Dub Arise"
PERFORMER "David Solid Gould Vs Bill Laswell"
INDEX 01 00:00:00
FILE "10 - Once We Were Dub.wav" WAVE
TRACK 10 AUDIO
TITLE "Once We Were Dub"
PERFORMER "David Solid Gould Vs Bill Laswell"
INDEX 01 00:00:00
FILE "11 - Peace Dub.wav" WAVE
TRACK 11 AUDIO
TITLE "Peace Dub"
PERFORMER "David Solid Gould Vs Bill Laswell"
INDEX 01 00:00:00
FILE "12 - Next Dub In Jerusalem.wav" WAVE
TRACK 12 AUDIO
TITLE "Next Dub In Jerusalem"
PERFORMER "David Solid Gould Vs Bill Laswell"
INDEX 01 00:00:00
 
Лог проверки качества
-----------------------
DON'T MODIFY THIS FILE
-----------------------
PERFORMER: auCDtect Task Manager, ver. 1.5.1RC6 build 1.5.1.7
Copyright (c) 2008-2010 y-soft. All rights reserved
http://y-soft.org
ANALYZER: auCDtect: CD records authenticity detector, version 0.8.2
Copyright (c) 2004 Oleg Berngardt. All rights reserved.
Copyright (c) 2004 Alexander Djourik. All rights reserved.
FILE: 12 - Next Dub In Jerusalem.flac
Size: 31066196 Hash: A2B8D75161BBAFCE8BAF9A6964456122 Accuracy: -m0
Conclusion: MPEG 79%
Signature: 23A90504151B05015877DD9FB4326DCDB599A0C6
FILE: 11 - Peace Dub.flac
Size: 22422318 Hash: 7AE2CF018B4A877BD0744DD2D17E7716 Accuracy: -m0
Conclusion: MPEG 73%
Signature: 9BCB9944F6FEB26E579D168B9FC86DBF88B0DD9D
FILE: 10 - Once We Were Dub.flac
Size: 17449750 Hash: 5596476411009A53F178F4F984E66135 Accuracy: -m0
Conclusion: CDDA 58%
Signature: 619B94392ABCA10FEC9F35C96FFEA9CC9988C931
FILE: 09 - May the Dub Arise.flac
Size: 24317282 Hash: C844E0FC3997BFDE22ACDD6D5A9875F7 Accuracy: -m0
Conclusion: MPEG 95%
Signature: 35A5C4D9A72A4F3E72E5C9AE5C2C007894CD91C3
FILE: 08 - Goat's Dub.flac
Size: 23441761 Hash: 3D4CDECAF3511962A0FF8655926B5039 Accuracy: -m0
Conclusion: CDDA 87%
Signature: C1339CBEA51D8CD9B0EA7EDCDA841648B88479EB
FILE: 07 - Who Knows Dub.flac
Size: 30370870 Hash: 8205E44F21DF9B7CF22E4B009E16F44E Accuracy: -m0
Conclusion: CDDA 100%
Signature: 38E28BA9645AF2EBCD8415FCC298711EFE7E6CF6
FILE: 06 - Dub is Mighty.flac
Size: 24041044 Hash: BEEDB240738A20F5E85D99C7D5ACAA27 Accuracy: -m0
Conclusion: CDDA 43%
Signature: 5F3F9F3E112C06A15F63F512BCF7C68DC1257F1B
FILE: 05 - Jah Dub.flac
Size: 22478250 Hash: F32E61573F8340AFCDC999023FDDA59D Accuracy: -m0
Conclusion: MPEG 85%
Signature: 1AA33FC552867A3A29D716657001EE8AF53AE6FD
FILE: 04 - Dub Plagues.flac
Size: 31972879 Hash: F86114C5BA510A00C2CBEED43152C122 Accuracy: -m0
Conclusion: MPEG 79%
Signature: 6F91E51E53F187DDD3DA7DD615F71166B2A1392E
FILE: 03 - Dub Questions.flac
Size: 21860941 Hash: 06F638D6AD3F3AE31CBDCA4DCFC79CC9 Accuracy: -m0
Conclusion: CDDA 49%
Signature: A6CE29C695281D1C767E25E4E613634BED1FA4E3
FILE: 02 - Dub of Affliction.flac
Size: 25086261 Hash: 040B16BB521F4FACF3542F85D3FBD2CD Accuracy: -m0
Conclusion: CDDA 87%
Signature: 06D741524207C4B2798F056A2B7C44C9903FB857
FILE: 01 - Divine Dub.flac
Size: 33121800 Hash: DB530E62DE6F84DC0DD4314A4648A1D7 Accuracy: -m0
Conclusion: MPEG 97%
Signature: 97683DB5F9205C83F07F47A6D1C37F879738F0C9
 
Скриншоты спектра частот
 
Review
Ever since his Adonai & I project in 2001, former John Brown's Body bassist David "Solid" Gould has been building musical bridges between Jewish and Jamaican musical traditions, and (not incidentally) between Jewish and Rastafarian traditions of worship. The latest installment in this project is Feast of the Passover, a collection of songs traditionally sung as part of the Passover seder delivered in a variety of reggae and ska styles. Like Adonai & I, Feast of the Passover (whose title is almost certainly intended as a subtle shout-out to the great and nearly forgotten reggae band the Congos) is simultaneously groovy, adventurous, and touchingly devotional, its rhythms pushed along by Gould's perfectly structured basslines. Dub of the Passover finds him joining forces with fellow bass expert (and legendary producer) Bill Laswell to create a dub version of the original album, with equally impressive results. "Divine Dub" features nyabinghi-flavored drums overlaid with a dreamy horn chart in the context of an unusually laid-back groove; "Dub of Affliction" brings in a contrastingly militant steppers beat, while "Dub Is Mighty" is sweetly pretty, with its one-drop beat and shredded wisps of vocals by Leonard Dillon (of the Ethiopians). "Goat's Dub" offers a polite recasting of the original album's most quietly cheerful track, its bleating dubwise goats recalling the lowing of the Black Ark cow. Gould's approach to polycultural reggae continues to offer new insight on old musical traditions, and frequently touches emotional and spiritual nerves that one might not expect to find exposed in the context of reggae music.
Доп. информация: Dub of the Passover is Bill Laswell's dub translation of David Solid Gould's Feast of the Passover (Tzadik 2009).
Any questions -> support@pro-jazz.com. По всем вопросам пишите -> support@pro-jazz.com
21:55
163
Нет комментариев. Ваш будет первым!