Вы используете незарегистрированную версию компонента "Вкладки"!

Поиск

(Free Improvisation) Albert van Veenendaal, Meinrad Kneer, Yonga Sun - Predictable Point of Impact - 2006, FLAC (tracks+.cue), lossless

(Free Improvisation) Albert van Veenendaal, Meinrad Kneer, Yonga Sun - Predictable Point of Impact - 2006, FLAC (tracks+.cue), lossless
Треклист:
Albert van Veenendaal, Meinrad Kneer, Yonga Sun / Predictable Point of Impact
Жанр: Free Improvisation
Страна-производитель диска: Netherlands
Год издания диска: 2006
Издатель (лейбл): Evil Rabbit Records
Номер по каталогу: ERR 04
Аудиокодек: FLAC (*.flac)
Тип рипа: tracks+.cue
Битрейт аудио: lossless
Продолжительность: 62:44
Источник (релизер): what. cd (microtonne)
Наличие сканов в содержимом раздачи: нет
Треклист:
01 Happy Hour 6:34
02 Posthume Verleumdung 5:25
03 Alex The Woitec Guy 7:22
04 Easy Uneasy 5:12
05 As Cucumbers 6:10
06 Dance To Sing Strangely With 4:26
07 Wolf Hunt 7:21
08 Lonely Weekend 6:07
09 Predictable Point Of Impact 6:33
10 Papperlapapp 7:13
 
Лог создания рипа
Exact Audio Copy V1.0 beta 3 from 29. August 2011
EAC extraction logfile from 30. November 2011, 23:35
A.Van Veenendaal_M.Kneer_Y.Sun / Predictable Point Of Impact
Used drive : _NEC DVD_RW ND-3520A Adapter: 1 ID: 1
Read mode : Secure
Utilize accurate stream : Yes
Defeat audio cache : Yes
Make use of C2 pointers : No
Read offset correction : 48
Overread into Lead-In and Lead-Out : No
Fill up missing offset samples with silence : Yes
Delete leading and trailing silent blocks : No
Null samples used in CRC calculations : Yes
Used interface : Native Win32 interface for Win NT & 2000
Gap handling : Appended to previous track
Used output format : User Defined Encoder
Selected bitrate : 768 kBit/s
Quality : High
Add ID3 tag : No
Command line compressor : C:\Program Files\Exact Audio Copy\FLAC\FLAC.EXE
Additional command line options : -6 -V -T "ARTIST=%artist%" -T "TITLE=%title%" -T "ALBUM=%albumtitle%" -T "DATE=%year%" -T "TRACKNUMBER=%tracknr%" -T "GENRE=%genre%" -T "COMMENT=%comment%" -T "BAND=%albuminterpret%" -T "ALBUMARTIST=%albuminterpret%" -T "COMPOSER=%composer%" %haslyrics%--tag-from-file=LYRICS="%lyricsfile%"%haslyrics% -T "DISCNUMBER=%cdnumber%" -T "TOTALDISCS=%totalcds%" -T "TOTALTRACKS=%numtracks%" %hascover%--picture="%coverfile%"%hascover% %source% -o %dest%
TOC of the extracted CD
Track | Start | Length | Start sector | End sector
---------------------------------------------------------
1 | 0:00.00 | 6:34.38 | 0 | 29587
2 | 6:34.38 | 5:25.14 | 29588 | 53976
3 | 11:59.52 | 7:22.04 | 53977 | 87130
4 | 19:21.56 | 5:12.04 | 87131 | 110534
5 | 24:33.60 | 6:10.04 | 110535 | 138288
6 | 30:43.64 | 4:26.47 | 138289 | 158285
7 | 35:10.36 | 7:21.52 | 158286 | 191412
8 | 42:32.13 | 6:07.46 | 191413 | 218983
9 | 48:39.59 | 6:33.43 | 218984 | 248501
10 | 55:13.27 | 7:13.30 | 248502 | 281006
Track 1
Filename C:\Documents and Settings\User\Рабочий стол\Albert Van Veenendaal_Meinrad Kneer_Yonga Sun - Predictable Point Of Impact_2006 [FLAC]\01 Happy Hour.wav
Pre-gap length 0:00:02.00
Peak level 99.7 %
Extraction speed 1.4 X
Track quality 100.0 %
Test CRC AF6555EB
Copy CRC AF6555EB
Track not present in AccurateRip database
Copy OK
Track 2
Filename C:\Documents and Settings\User\Рабочий стол\Albert Van Veenendaal_Meinrad Kneer_Yonga Sun - Predictable Point Of Impact_2006 [FLAC]\02 Postume Verleumdung.wav
Peak level 99.7 %
Extraction speed 3.0 X
Track quality 100.0 %
Test CRC 7BC3440F
Copy CRC 7BC3440F
Track not present in AccurateRip database
Copy OK
Track 3
Filename C:\Documents and Settings\User\Рабочий стол\Albert Van Veenendaal_Meinrad Kneer_Yonga Sun - Predictable Point Of Impact_2006 [FLAC]\03 Alex the Waltec Guy.wav
Peak level 99.7 %
Extraction speed 5.3 X
Track quality 100.0 %
Test CRC BF333876
Copy CRC BF333876
Track not present in AccurateRip database
Copy OK
Track 4
Filename C:\Documents and Settings\User\Рабочий стол\Albert Van Veenendaal_Meinrad Kneer_Yonga Sun - Predictable Point Of Impact_2006 [FLAC]\04 Easy Uneasy.wav
Peak level 99.7 %
Extraction speed 4.8 X
Track quality 99.9 %
Test CRC 34055CFE
Copy CRC 34055CFE
Track not present in AccurateRip database
Copy OK
Track 5
Filename C:\Documents and Settings\User\Рабочий стол\Albert Van Veenendaal_Meinrad Kneer_Yonga Sun - Predictable Point Of Impact_2006 [FLAC]\05 As Cucumbers.wav
Peak level 99.7 %
Extraction speed 4.5 X
Track quality 99.9 %
Test CRC BBBCD0EE
Copy CRC BBBCD0EE
Track not present in AccurateRip database
Copy OK
Track 6
Filename C:\Documents and Settings\User\Рабочий стол\Albert Van Veenendaal_Meinrad Kneer_Yonga Sun - Predictable Point Of Impact_2006 [FLAC]\06 Dance To Sing Strangely With.wav
Peak level 99.7 %
Extraction speed 6.1 X
Track quality 100.0 %
Test CRC 8B208BF3
Copy CRC 8B208BF3
Track not present in AccurateRip database
Copy OK
Track 7
Filename C:\Documents and Settings\User\Рабочий стол\Albert Van Veenendaal_Meinrad Kneer_Yonga Sun - Predictable Point Of Impact_2006 [FLAC]\07 Walf Hunt.wav
Peak level 99.7 %
Extraction speed 4.9 X
Track quality 99.9 %
Test CRC DD7B576F
Copy CRC DD7B576F
Track not present in AccurateRip database
Copy OK
Track 8
Filename C:\Documents and Settings\User\Рабочий стол\Albert Van Veenendaal_Meinrad Kneer_Yonga Sun - Predictable Point Of Impact_2006 [FLAC]\08 Lonely Weekend.wav
Peak level 99.7 %
Extraction speed 2.9 X
Track quality 99.7 %
Test CRC 92F117FE
Copy CRC 92F117FE
Track not present in AccurateRip database
Copy OK
Track 9
Filename C:\Documents and Settings\User\Рабочий стол\Albert Van Veenendaal_Meinrad Kneer_Yonga Sun - Predictable Point Of Impact_2006 [FLAC]\09 Predictable Point of Impact.wav
Peak level 99.7 %
Extraction speed 2.6 X
Track quality 99.6 %
Test CRC A5714F9C
Copy CRC A5714F9C
Track not present in AccurateRip database
Copy OK
Track 10
Filename C:\Documents and Settings\User\Рабочий стол\Albert Van Veenendaal_Meinrad Kneer_Yonga Sun - Predictable Point Of Impact_2006 [FLAC]\10 Papperlapapp.wav
Peak level 99.7 %
Extraction speed 3.7 X
Track quality 99.7 %
Test CRC C4541DAD
Copy CRC C4541DAD
Track not present in AccurateRip database
Copy OK
None of the tracks are present in the AccurateRip database
No errors occurred
End of status report
==== Log checksum BD764B8CA3E62C25FFB73BD202DA6540F212F1169C899883A5719D710F7CFA1B ====
 
Содержание индексной карты (.CUE)
REM GENRE Jazz
REM DATE 2006
REM DISCID 7C0EA20A
REM COMMENT "ExactAudioCopy v1.0b3"
PERFORMER "A.Van Veenendaal_M.Kneer_Y.Sun"
TITLE "Predictable Point Of Impact"
FILE "01 Happy Hour.wav" WAVE
TRACK 01 AUDIO
TITLE "Happy Hour"
PERFORMER "A.Van Veenendaal_M.Kneer_Y.Sun"
INDEX 01 00:00:00
FILE "02 Postume Verleumdung.wav" WAVE
TRACK 02 AUDIO
TITLE "Postume Verleumdung"
PERFORMER "A.Van Veenendaal_M.Kneer_Y.Sun"
INDEX 01 00:00:00
FILE "03 Alex the Waltec Guy.wav" WAVE
TRACK 03 AUDIO
TITLE "Alex the Waltec Guy"
PERFORMER "A.Van Veenendaal_M.Kneer_Y.Sun"
INDEX 01 00:00:00
FILE "04 Easy Uneasy.wav" WAVE
TRACK 04 AUDIO
TITLE "Easy Uneasy"
PERFORMER "A.Van Veenendaal_M.Kneer_Y.Sun"
INDEX 01 00:00:00
FILE "05 As Cucumbers.wav" WAVE
TRACK 05 AUDIO
TITLE "As Cucumbers"
PERFORMER "A.Van Veenendaal_M.Kneer_Y.Sun"
INDEX 01 00:00:00
FILE "06 Dance To Sing Strangely With.wav" WAVE
TRACK 06 AUDIO
TITLE "Dance To Sing Strangely With"
PERFORMER "A.Van Veenendaal_M.Kneer_Y.Sun"
INDEX 01 00:00:00
FILE "07 Walf Hunt.wav" WAVE
TRACK 07 AUDIO
TITLE "Walf Hunt"
PERFORMER "A.Van Veenendaal_M.Kneer_Y.Sun"
INDEX 01 00:00:00
FILE "08 Lonely Weekend.wav" WAVE
TRACK 08 AUDIO
TITLE "Lonely Weekend"
PERFORMER "A.Van Veenendaal_M.Kneer_Y.Sun"
INDEX 01 00:00:00
FILE "09 Predictable Point of Impact.wav" WAVE
TRACK 09 AUDIO
TITLE "Predictable Point of Impact"
PERFORMER "A.Van Veenendaal_M.Kneer_Y.Sun"
INDEX 01 00:00:00
FILE "10 Papperlapapp.wav" WAVE
TRACK 10 AUDIO
TITLE "Papperlapapp"
PERFORMER "A.Van Veenendaal_M.Kneer_Y.Sun"
INDEX 01 00:00:00
Доп. информация: Recorded 9-10 November 2006 at Leroy Studio, Amsterdam
 
Состав
Double Bass – Meinrad Kneer
Drums, Performer [Little Things] – Yonga Sun
Piano [Prepared] – Albert Van Veenendaal
По всем вопросам пишите личное сообщение пользователю M0p94ok.
21:54
159
Нет комментариев. Ваш будет первым!