Вы используете незарегистрированную версию компонента "Вкладки"!

Поиск

(Free Improvisation) Albert van Veenendaal, Fabrizio Puglisi - Duets for Prepared Unprepared and Toy Pianos - 2007, FLAC (tracks+.cue), lossless

(Free Improvisation) Albert van Veenendaal, Fabrizio Puglisi - Duets for Prepared Unprepared and Toy Pianos - 2007, FLAC (tracks+.cue), lossless
Треклист:
Albert van Veenendaal, Fabrizio Puglisi / Duets for Prepared Unprepared and Toy Pianos
Жанр: Free Improvisation
Страна-производитель диска: Netherlands
Год издания диска: 2007
Издатель (лейбл): Evil Rabbit Records
Номер по каталогу: ERR 02
Аудиокодек: FLAC (*.flac)
Тип рипа: tracks+.cue
Битрейт аудио: lossless
Продолжительность: 43:50
Источник (релизер): what.cd (microtonne)
Наличие сканов в содержимом раздачи: нет
Треклист:
01 Hop 2:47
02 Eppur Sim Muove 3:21
03 Short Fuses 1:36
04 Balthus Ed Il Gatto 2:53
05 To Alan Lomax 2:41
Quatre Petite Histoires:
06 Il Chant Un Petit Chanson 1:34
07 Il Mange Une Pomme 1:13
08 Il Neige 1:12
09 Ou Esti Il? 1:24
-
10 Earthquakes 2:54
11 Elegy For Russian Brides 2:51
12 Traps And Targets 1:34
13 Gazz 8:17
14 Gaffers Song 1:33
15 Vertical Arrival 5:36
16 Misfits 1:43
 
Лог создания рипа
Exact Audio Copy V1.0 beta 3 from 29. August 2011
EAC extraction logfile from 1. December 2011, 0:15
A.Van Veenendaal_F.Puglisi / Duets For Prepared Unprepared And Toy Pianos
Used drive : _NEC DVD_RW ND-3520A Adapter: 1 ID: 1
Read mode : Secure
Utilize accurate stream : Yes
Defeat audio cache : Yes
Make use of C2 pointers : No
Read offset correction : 48
Overread into Lead-In and Lead-Out : No
Fill up missing offset samples with silence : Yes
Delete leading and trailing silent blocks : No
Null samples used in CRC calculations : Yes
Used interface : Native Win32 interface for Win NT & 2000
Gap handling : Appended to previous track
Used output format : User Defined Encoder
Selected bitrate : 768 kBit/s
Quality : High
Add ID3 tag : No
Command line compressor : C:\Program Files\Exact Audio Copy\FLAC\FLAC.EXE
Additional command line options : -6 -V -T "ARTIST=%artist%" -T "TITLE=%title%" -T "ALBUM=%albumtitle%" -T "DATE=%year%" -T "TRACKNUMBER=%tracknr%" -T "GENRE=%genre%" -T "COMMENT=%comment%" -T "BAND=%albuminterpret%" -T "ALBUMARTIST=%albuminterpret%" -T "COMPOSER=%composer%" %haslyrics%--tag-from-file=LYRICS="%lyricsfile%"%haslyrics% -T "DISCNUMBER=%cdnumber%" -T "TOTALDISCS=%totalcds%" -T "TOTALTRACKS=%numtracks%" %hascover%--picture="%coverfile%"%hascover% %source% -o %dest%
TOC of the extracted CD
Track | Start | Length | Start sector | End sector
---------------------------------------------------------
1 | 0:00.00 | 2:50.66 | 0 | 12815
2 | 2:50.66 | 3:24.20 | 12816 | 28135
3 | 6:15.11 | 1:40.17 | 28136 | 35652
4 | 7:55.28 | 2:57.36 | 35653 | 48963
5 | 10:52.64 | 2:46.05 | 48964 | 61418
6 | 13:38.69 | 1:34.56 | 61419 | 68524
7 | 15:13.50 | 1:13.42 | 68525 | 74041
8 | 16:27.17 | 1:12.09 | 74042 | 79450
9 | 17:39.26 | 1:26.37 | 79451 | 85937
10 | 19:05.63 | 2:57.33 | 85938 | 99245
11 | 22:03.21 | 2:53.46 | 99246 | 112266
12 | 24:56.67 | 1:34.11 | 112267 | 119327
13 | 26:31.03 | 8:19.31 | 119328 | 156783
14 | 34:50.34 | 1:35.57 | 156784 | 163965
15 | 36:26.16 | 5:40.35 | 163966 | 189500
16 | 42:06.51 | 1:43.23 | 189501 | 197248
Track 1
Filename C:\Documents and Settings\User\Рабочий стол\Albert Van Veenendaal_Fabrizio Puglisi - Duets For Prepared Unprepared And Toy Pianos_2007 [FLAC]\01 Hop.wav
Pre-gap length 0:00:02.00
Peak level 100.0 %
Extraction speed 3.6 X
Track quality 100.0 %
Test CRC F41E6DFE
Copy CRC F41E6DFE
Track not present in AccurateRip database
Copy OK
Track 2
Filename C:\Documents and Settings\User\Рабочий стол\Albert Van Veenendaal_Fabrizio Puglisi - Duets For Prepared Unprepared And Toy Pianos_2007 [FLAC]\02 Eppur Sim Muove.wav
Peak level 100.0 %
Extraction speed 2.3 X
Track quality 99.8 %
Test CRC 2417B7A1
Copy CRC 2417B7A1
Track not present in AccurateRip database
Copy OK
Track 3
Filename C:\Documents and Settings\User\Рабочий стол\Albert Van Veenendaal_Fabrizio Puglisi - Duets For Prepared Unprepared And Toy Pianos_2007 [FLAC]\03 Short Fuses.wav
Peak level 97.2 %
Extraction speed 2.5 X
Track quality 99.8 %
Test CRC ABDE54C0
Copy CRC ABDE54C0
Track not present in AccurateRip database
Copy OK
Track 4
Filename C:\Documents and Settings\User\Рабочий стол\Albert Van Veenendaal_Fabrizio Puglisi - Duets For Prepared Unprepared And Toy Pianos_2007 [FLAC]\04 Balthus Ed Il Gatto.wav
Peak level 100.0 %
Extraction speed 4.3 X
Track quality 100.0 %
Test CRC 91AA76AA
Copy CRC 91AA76AA
Track not present in AccurateRip database
Copy OK
Track 5
Filename C:\Documents and Settings\User\Рабочий стол\Albert Van Veenendaal_Fabrizio Puglisi - Duets For Prepared Unprepared And Toy Pianos_2007 [FLAC]\05 To Alan Lomax.wav
Peak level 100.0 %
Extraction speed 4.5 X
Track quality 100.0 %
Test CRC 24CCC3C5
Copy CRC 24CCC3C5
Track not present in AccurateRip database
Copy OK
Track 6
Filename C:\Documents and Settings\User\Рабочий стол\Albert Van Veenendaal_Fabrizio Puglisi - Duets For Prepared Unprepared And Toy Pianos_2007 [FLAC]\06 Il Chant Un Petit Chanson.wav
Peak level 100.0 %
Extraction speed 4.0 X
Track quality 100.0 %
Test CRC 58D918F8
Copy CRC 58D918F8
Track not present in AccurateRip database
Copy OK
Track 7
Filename C:\Documents and Settings\User\Рабочий стол\Albert Van Veenendaal_Fabrizio Puglisi - Duets For Prepared Unprepared And Toy Pianos_2007 [FLAC]\07 Il Mange Une Pomme.wav
Peak level 100.0 %
Extraction speed 3.8 X
Track quality 100.0 %
Test CRC C4C4F6CD
Copy CRC C4C4F6CD
Track not present in AccurateRip database
Copy OK
Track 8
Filename C:\Documents and Settings\User\Рабочий стол\Albert Van Veenendaal_Fabrizio Puglisi - Duets For Prepared Unprepared And Toy Pianos_2007 [FLAC]\08 Il Neige.wav
Peak level 100.0 %
Extraction speed 3.9 X
Track quality 100.0 %
Test CRC 57188168
Copy CRC 57188168
Track not present in AccurateRip database
Copy OK
Track 9
Filename C:\Documents and Settings\User\Рабочий стол\Albert Van Veenendaal_Fabrizio Puglisi - Duets For Prepared Unprepared And Toy Pianos_2007 [FLAC]\09 Ou Esti Il.wav
Peak level 100.0 %
Extraction speed 4.2 X
Track quality 100.0 %
Test CRC 960A8AD0
Copy CRC 960A8AD0
Track not present in AccurateRip database
Copy OK
Track 10
Filename C:\Documents and Settings\User\Рабочий стол\Albert Van Veenendaal_Fabrizio Puglisi - Duets For Prepared Unprepared And Toy Pianos_2007 [FLAC]\10 Earthquakes.wav
Peak level 100.0 %
Extraction speed 3.3 X
Track quality 99.8 %
Test CRC 1B22271B
Copy CRC 1B22271B
Track not present in AccurateRip database
Copy OK
Track 11
Filename C:\Documents and Settings\User\Рабочий стол\Albert Van Veenendaal_Fabrizio Puglisi - Duets For Prepared Unprepared And Toy Pianos_2007 [FLAC]\11 Elegy For Russian Brides.wav
Peak level 100.0 %
Extraction speed 1.4 X
Track quality 99.8 %
Test CRC DB9D5ECD
Copy CRC DB9D5ECD
Track not present in AccurateRip database
Copy OK
Track 12
Filename C:\Documents and Settings\User\Рабочий стол\Albert Van Veenendaal_Fabrizio Puglisi - Duets For Prepared Unprepared And Toy Pianos_2007 [FLAC]\12 Traps And Targets.wav
Peak level 100.0 %
Extraction speed 1.5 X
Track quality 99.8 %
Test CRC 6C3683A8
Copy CRC 6C3683A8
Track not present in AccurateRip database
Copy OK
Track 13
Filename C:\Documents and Settings\User\Рабочий стол\Albert Van Veenendaal_Fabrizio Puglisi - Duets For Prepared Unprepared And Toy Pianos_2007 [FLAC]\13 Gazz.wav
Peak level 83.3 %
Extraction speed 4.1 X
Track quality 100.0 %
Test CRC EAEF745E
Copy CRC EAEF745E
Track not present in AccurateRip database
Copy OK
Track 14
Filename C:\Documents and Settings\User\Рабочий стол\Albert Van Veenendaal_Fabrizio Puglisi - Duets For Prepared Unprepared And Toy Pianos_2007 [FLAC]\14 Gaffers Song.wav
Peak level 100.0 %
Extraction speed 1.4 X
Track quality 99.5 %
Test CRC 58225EF0
Copy CRC 58225EF0
Track not present in AccurateRip database
Copy OK
Track 15
Filename C:\Documents and Settings\User\Рабочий стол\Albert Van Veenendaal_Fabrizio Puglisi - Duets For Prepared Unprepared And Toy Pianos_2007 [FLAC]\15 Vertical Arrival.wav
Peak level 100.0 %
Extraction speed 1.6 X
Track quality 99.5 %
Test CRC A536579A
Copy CRC A536579A
Track not present in AccurateRip database
Copy OK
Track 16
Filename C:\Documents and Settings\User\Рабочий стол\Albert Van Veenendaal_Fabrizio Puglisi - Duets For Prepared Unprepared And Toy Pianos_2007 [FLAC]\16 Misfits.wav
Peak level 100.0 %
Extraction speed 1.3 X
Track quality 99.4 %
Test CRC 429B10BB
Copy CRC 429B10BB
Track not present in AccurateRip database
Copy OK
None of the tracks are present in the AccurateRip database
No errors occurred
End of status report
==== Log checksum D7B946C284D38F334D30A72F82198D263FF188A5A653A6CA9B81A32FEF8B1D78 ====
 
Содержание индексной карты (.CUE)
REM DATE 2007
REM DISCID EA0A4510
REM COMMENT "ExactAudioCopy v1.0b3"
PERFORMER "A.Van Veenendaal_F.Puglisi"
TITLE "Duets For Prepared Unprepared And Toy Pianos"
FILE "01 Hop.wav" WAVE
TRACK 01 AUDIO
TITLE "Hop"
PERFORMER "A.Van Veenendaal_F.Puglisi"
INDEX 01 00:00:00
FILE "02 Eppur Sim Muove.wav" WAVE
TRACK 02 AUDIO
TITLE "Eppur Sim Muove"
PERFORMER "A.Van Veenendaal_F.Puglisi"
INDEX 01 00:00:00
FILE "03 Short Fuses.wav" WAVE
TRACK 03 AUDIO
TITLE "Short Fuses"
PERFORMER "A.Van Veenendaal_F.Puglisi"
INDEX 01 00:00:00
FILE "04 Balthus Ed Il Gatto.wav" WAVE
TRACK 04 AUDIO
TITLE "Balthus Ed Il Gatto"
PERFORMER "A.Van Veenendaal_F.Puglisi"
INDEX 01 00:00:00
FILE "05 To Alan Lomax.wav" WAVE
TRACK 05 AUDIO
TITLE "To Alan Lomax"
PERFORMER "A.Van Veenendaal_F.Puglisi"
INDEX 01 00:00:00
FILE "06 Il Chant Un Petit Chanson.wav" WAVE
TRACK 06 AUDIO
TITLE "Il Chant Un Petit Chanson"
PERFORMER "A.Van Veenendaal_F.Puglisi"
INDEX 01 00:00:00
FILE "07 Il Mange Une Pomme.wav" WAVE
TRACK 07 AUDIO
TITLE "Il Mange Une Pomme"
PERFORMER "A.Van Veenendaal_F.Puglisi"
INDEX 01 00:00:00
FILE "08 Il Neige.wav" WAVE
TRACK 08 AUDIO
TITLE "Il Neige"
PERFORMER "A.Van Veenendaal_F.Puglisi"
INDEX 01 00:00:00
FILE "09 Ou Esti Il.wav" WAVE
TRACK 09 AUDIO
TITLE "Ou Esti Il"
PERFORMER "A.Van Veenendaal_F.Puglisi"
INDEX 01 00:00:00
FILE "10 Earthquakes.wav" WAVE
TRACK 10 AUDIO
TITLE "Earthquakes"
PERFORMER "A.Van Veenendaal_F.Puglisi"
INDEX 01 00:00:00
FILE "11 Elegy For Russian Brides.wav" WAVE
TRACK 11 AUDIO
TITLE "Elegy For Russian Brides"
PERFORMER "A.Van Veenendaal_F.Puglisi"
INDEX 01 00:00:00
FILE "12 Traps And Targets.wav" WAVE
TRACK 12 AUDIO
TITLE "Traps And Targets"
PERFORMER "A.Van Veenendaal_F.Puglisi"
INDEX 01 00:00:00
FILE "13 Gazz.wav" WAVE
TRACK 13 AUDIO
TITLE "Gazz"
PERFORMER "A.Van Veenendaal_F.Puglisi"
INDEX 01 00:00:00
FILE "14 Gaffers Song.wav" WAVE
TRACK 14 AUDIO
TITLE "Gaffers Song"
PERFORMER "A.Van Veenendaal_F.Puglisi"
INDEX 01 00:00:00
FILE "15 Vertical Arrival.wav" WAVE
TRACK 15 AUDIO
TITLE "Vertical Arrival"
PERFORMER "A.Van Veenendaal_F.Puglisi"
INDEX 01 00:00:00
FILE "16 Misfits.wav" WAVE
TRACK 16 AUDIO
TITLE "Misfits"
PERFORMER "A.Van Veenendaal_F.Puglisi"
INDEX 01 00:00:00
Доп. информация: Recorded on 24 February 2004 at the Bimhuis, Amsterdam
 
Состав
Piano [Prepared, Unprepared], Toy Piano – Albert Van Veenendaal, Fabrizio Puglisi
Any questions -> support@pro-jazz.com. По всем вопросам пишите -> support@pro-jazz.com
21:53
131
Нет комментариев. Ваш будет первым!