Вы используете незарегистрированную версию компонента "Вкладки"!

Поиск

(Experimental Big Band / Vocal Jazz) Vienna Art Choir - Five Old Songs - 1984, FLAC (image+.cue), lossless

(Experimental Big Band / Vocal Jazz) Vienna Art Choir - Five Old Songs - 1984, FLAC (image+.cue), lossless
Треклист:
Vienna Art Choir / Five Old Songs
Жанр: Experimental Big Band/Vocal Jazz
Страна-производитель диска: Germany
Год издания диска: 1984
Издатель (лейбл): Moers Music
Номер по каталогу: 02036 CD
Страна: Austria
Аудиокодек: FLAC (*.flac)
Тип рипа: image+.cue
Битрейт аудио: lossless
Продолжительность: 37:00
Источник (релизер): ВалерийАфонин61
Наличие сканов в содержимом раздачи: да
Треклист:
1. Song 1 (based on Luegit vo Barg und Tal) 11.47
2. Song 2 (based on Es git kei solige Stamme) 5.41
3. Song 3 (based on Zoge am Boge) 4.32
4. Song 4 (based on Guggisbergerlied) 7.32
5. Song 5 (based on La Girumeta) 9.21
All songs composed and arranged by Matthias Ruegg (SUISA)
 
Лог создания рипа
Exact Audio Copy V1.0 beta 3 from 29. August 2011
Отчёт EAC об извлечении, выполненном 13. февраля 2012, 18:26
Vienna Art Choir / Five Old Songs
Дисковод: HL-DT-STDVDRAM GSA-T20N Adapter: 3 ID: 0
Режим чтения : Достоверность
Использование точного потока : Да
Отключение кэша аудио : Да
Использование указателей C2 : Нет
Коррекция смещения при чтении : 667
Способность читать области Lead-in и Lead-out : Нет
Заполнение пропущенных сэмплов тишиной : Да
Удаление блоков с тишиной в начале и конце : Нет
При вычислениях CRC использовались нулевые сэмплы : Да
Интерфейс : Встроенный Win32-интерфейс для Win NT/2000
Выходной формат : Пользовательский кодировщик
Выбранный битрейт : 896 kBit/s
Качество : Высокий
Добавление ID3-тега : Нет
Утилита сжатия : C:\Program Files\AIMP2\Encoders\flac.exe
TOC извлечённого CD
Трек | Старт | Длительность | Начальный сектор | Конечный сектор
---------------------------------------------------------------------
1 | 0:00.00 | 9:58.52 | 0 | 44901
2 | 9:58.52 | 5:39.65 | 44902 | 70391
3 | 15:38.42 | 4:34.48 | 70392 | 90989
4 | 20:13.15 | 7:30.62 | 90990 | 124801
5 | 27:44.02 | 9:16.13 | 124802 | 166514
Характеристики диапазона извлечения и сообщения об ошибках
Выбранный диапазон
Имя файла Z:\Audio CDs\Vienna Art Choir - Five Old Songs\Vienna Art Choir - Five Old Songs.wav
Подозрительная позиция 0:11:04
Пиковый уровень 100.0 %
Скорость извлечения 2.4 X
Качество диапазона 99.8 %
CRC теста 1D783CF9
CRC копии C74FE4F4
Копирование завершено
Были ошибки
Конец отчёта
==== Контрольная сумма отчёта 3016EBF5D07A63412E383A9E809EB9D0A17D4FB640D510B08796B2CA0F6F5B7A ====
 
Содержание индексной карты (.CUE)
REM DATE 1984
REM DISCID 3108AC05
REM COMMENT "ExactAudioCopy v1.0b3"
CATALOG 0000000000000
PERFORMER "Vienna Art Choir"
TITLE "Five Old Songs"
FILE "Vienna Art Choir - Five Old Songs.flac" WAVE
TRACK 01 AUDIO
TITLE "Song 1"
PERFORMER "Vienna Art Choir"
INDEX 01 00:00:00
TRACK 02 AUDIO
TITLE "Song 2"
PERFORMER "Vienna Art Choir"
INDEX 00 09:56:52
INDEX 01 09:58:52
TRACK 03 AUDIO
TITLE "Song 3"
PERFORMER "Vienna Art Choir"
INDEX 00 15:36:42
INDEX 01 15:38:42
TRACK 04 AUDIO
TITLE "Song 4"
PERFORMER "Vienna Art Choir"
INDEX 00 20:11:15
INDEX 01 20:13:15
TRACK 05 AUDIO
TITLE "Song 5"
PERFORMER "Vienna Art Choir"
INDEX 00 27:42:02
INDEX 01 27:44:02
 
Состав
Wolfgang Puschnig - altosax, bassclarinet, flute, piccolo, exotic flute
Herbert Joss - flugelhorn, alphorn
Christian Radovan - trombone
George Lewis - trombone (3)
Woody Schabata - dulcimer, xylophone
Lauren Newton - lead vocal, vocal solos
Renate Bochdansky - soprano
Maria Bayer - alto
Lis Malina - alto
Sharon Natalie - alto
Karin Riessner - alto
Peter Jelosits - tenor
Kurt Azesberger - tenor
Christof Prinz - bariton
Roland Streiner - bariton
Winfried Stelzmuller - bass
Johannes Prinz - bass, leader of the choir
Matthias Ruegg - composer, arrangeur, conductor, leader
Any questions -> support@pro-jazz.com. По всем вопросам пишите -> support@pro-jazz.com
21:55
142
Нет комментариев. Ваш будет первым!