Вы используете незарегистрированную версию компонента "Вкладки"!

Поиск

(Avant-Garde Jazz, Free Improvisation) Anthony Davis - Of Blues And Dreams - 1978, FLAC (tracks+.cue), lossless

(Avant-Garde Jazz, Free Improvisation) Anthony Davis - Of Blues And Dreams - 1978, FLAC (tracks+.cue), lossless
Треклист:
•Anthony Davis - Of Blues And Dreams•
Жанр: Avant-Garde Jazz, Free Improvisation
Страна-производитель диска: Canada
Год издания диска: 1978
Издатель (лейбл): Sackville
Номер по каталогу: SKCD2-3020
Аудиокодек: FLAC (*.flac)
Тип рипа: tracks+.cue
Битрейт аудио: lossless
Продолжительность: 00:42:10
Источник (релизер): Рип с диска.
Наличие сканов в содержимом раздачи: да
Треклист:
01. Of Blues And Dreams
02. Suite For Another World - i. Lethe
03. Suite For Another World - ii. Graef
04. Suite For Another World - iii. Madame Xola
05. Estraven
Personnel:Anthony Davis - p
Leroy Jenkins - violin
Abdul Wadud - cello
Pheeroan ak Laff - drRecorded july 30 & 31, 1978.
 
Лог создания рипа
Exact Audio Copy V1.0 beta 3 from 29. August 2011
Отчёт EAC об извлечении, выполненном 13. февраля 2012, 16:52
Anthony Davis / Of Blues and Dreams
Дисковод: TSSTcorpCDDVDW SH-S223C Adapter: 5 ID: 0
Режим чтения : Достоверность
Использование точного потока : Да
Отключение кэша аудио : Да
Использование указателей C2 : Нет
Коррекция смещения при чтении : 697
Способность читать области Lead-in и Lead-out : Нет
Заполнение пропущенных сэмплов тишиной : Да
Удаление блоков с тишиной в начале и конце : Нет
При вычислениях CRC использовались нулевые сэмплы : Да
Интерфейс : Установленный внешний ASPI-интерфейс
Обработка зазоров : Добавлено к предыдущему треку
Выходной формат : Пользовательский кодировщик
Выбранный битрейт : 128 kBit/s
Качество : Высокий
Добавление ID3-тега : Нет
Утилита сжатия : C:\Program Files\Exact Audio Copy\Flac\flac.exe
Дополнительные параметры : -V -8 -T "Genre=%genre%" -T "Artist=%artist%" -T "Title=%title%" -T "Album=%albumtitle%" -T "Date=%year%" -T "Tracknumber=%tracknr%" -T "Comment=%comment%" %source%
TOC извлечённого CD
Трек | Старт | Длительность | Начальный сектор | Конечный сектор
---------------------------------------------------------------------
1 | 0:00.00 | 4:59.14 | 0 | 22438
2 | 4:59.14 | 11:41.73 | 22439 | 75086
3 | 16:41.12 | 6:09.57 | 75087 | 102818
4 | 22:50.69 | 10:56.47 | 102819 | 152065
5 | 33:47.41 | 8:23.05 | 152066 | 189795
Трек 1
Имя файла C:\Шахматы\1978.Anthony Davis - Of Blues And Dreams\01. Of Blues And Dreams.wav
Длина предзазора 0:00:02.00
Пиковый уровень 64.2 %
Скорость извлечения 2.1 X
Качество трека 100.0 %
CRC теста E2FF0D4A
CRC копии E2FF0D4A
Трек не обнаружен в базе AccurateRip
Копирование... OK
Трек 2
Имя файла C:\Шахматы\1978.Anthony Davis - Of Blues And Dreams\02. Suite For Another World - i. Lethe.wav
Длина предзазора 0:00:01.57
Пиковый уровень 90.3 %
Скорость извлечения 2.7 X
Качество трека 100.0 %
CRC теста AA96ADCC
CRC копии AA96ADCC
Трек не обнаружен в базе AccurateRip
Копирование... OK
Трек 3
Имя файла C:\Шахматы\1978.Anthony Davis - Of Blues And Dreams\03. Suite For Another World - ii. Graef.wav
Длина предзазора 0:00:01.42
Пиковый уровень 97.1 %
Скорость извлечения 2.9 X
Качество трека 100.0 %
CRC теста 55A59792
CRC копии 55A59792
Трек не обнаружен в базе AccurateRip
Копирование... OK
Трек 4
Имя файла C:\Шахматы\1978.Anthony Davis - Of Blues And Dreams\04. Suite For Another World - iii. Madame Xola.wav
Длина предзазора 0:00:01.16
Пиковый уровень 74.5 %
Скорость извлечения 3.4 X
Качество трека 100.0 %
CRC теста ACC60F22
CRC копии ACC60F22
Трек не обнаружен в базе AccurateRip
Копирование... OK
Трек 5
Имя файла C:\Шахматы\1978.Anthony Davis - Of Blues And Dreams\05. Estraven.wav
Длина предзазора 0:00:01.30
Пиковый уровень 71.9 %
Скорость извлечения 3.6 X
Качество трека 100.0 %
CRC теста FBC96FB6
CRC копии FBC96FB6
Трек не обнаружен в базе AccurateRip
Копирование... OK
Ни одного трека нет в базе AccurateRip
Ошибок не произошло
Конец отчёта
==== Контрольная сумма отчёта 36B26F008140736E4128A378DD1A39E2718AF8F458346525BB6D9CF601936B19 ====
 
Содержание индексной карты (.CUE)
REM GENRE Jazz
REM DATE 1978
REM DISCID 2409E205
REM COMMENT "ExactAudioCopy v1.0b3"
PERFORMER "Anthony Davis"
TITLE "Of Blues and Dreams"
FILE "01. Of Blues And Dreams.wav" WAVE
TRACK 01 AUDIO
TITLE "Of Blues And Dreams"
PERFORMER "Anthony Davis"
INDEX 01 00:00:00
TRACK 02 AUDIO
TITLE "Suite For Another World - i. Lethe"
PERFORMER "Anthony Davis"
INDEX 00 04:57:32
FILE "02. Suite For Another World - i. Lethe.wav" WAVE
INDEX 01 00:00:00
TRACK 03 AUDIO
TITLE "Suite For Another World - ii. Graef"
PERFORMER "Anthony Davis"
INDEX 00 11:40:31
FILE "03. Suite For Another World - ii. Graef.wav" WAVE
INDEX 01 00:00:00
TRACK 04 AUDIO
TITLE "Suite For Another World - iii. Madame Xola"
PERFORMER "Anthony Davis"
INDEX 00 06:08:41
FILE "04. Suite For Another World - iii. Madame Xola.wav" WAVE
INDEX 01 00:00:00
TRACK 05 AUDIO
TITLE "Estraven"
PERFORMER "Anthony Davis"
INDEX 00 10:55:17
FILE "05. Estraven.wav" WAVE
INDEX 01 00:00:00
По всем вопросам пишите личное сообщение пользователю M0p94ok.
21:56
225
Нет комментариев. Ваш будет первым!