Вы используете незарегистрированную версию компонента "Вкладки"!

Поиск

(Tzadik, Contemporary Jazz, Soundtracks) Frank London - The Debt - 1997, APE (image+.cue), lossless

Треклист:
FRANK LONDON - THE DEBT
Жанр: Tzadik, Contemporary Jazz, Soundtracks
Страна-производитель диска: USA
Год издания диска: 1997
Издатель (лейбл): Tzadik Records
Номер по каталогу: TZA 7507
Аудио кодек: APE (*.ape)
Тип рипа: image+.cue
Битрейт аудио: lossless
Продолжительность: 70:46
Наличие сканов в содержимом раздачи: no
Источник (релизер): nnm, thanks archy1987
Исполнители:
Frank London - Trumpet, Keyboards, Accordion
Jay Rodriguez - Flute, Saxophone
Anthony Coleman - Piano
John Medeski - Keyboards
Mark Feldman - Violin
Boris Rayskin - Cello
David Krakauer - Clarinet
Aaron Heicke - Woodwind
Adam Rogers - Guitar
Bob Musso - Sitar
Sheryll Marshall - Vocals
Mark Dresser - Double Bass
David Licht - Percussion, Drums
& others
 
Треклист
1. Intro -The Groove
2. Chorale
3. Filmi
4. Lament
5. Melancholy
6. Laundry Dance: Agitato
7. Laundry Dance: Calm
8. Revelation
9. Blume
10. Cult Groove
11. Redemption
12. Deep
13. Toy Piano
14. Shootout
15. The Debt
16. To the Club
17. Moods
18. Swingers Theme
19. In Bed
20. Lounge
21. Dresser
22. Brief Seduction
23. Theme: reprise
24. El Silencio: part 1
25. El Silencio: part 2
26. Panic Rhumba
27. La Paz
28. Outro-Pathos
 
Лог ЕАС
Exact Audio Copy V0.99 prebeta 5 from 4. May 2009
Отчёт EAC об извлечении, выполненном 29. сентября 2009, 6:23
Frank London / The Debt
Дисковод: PIONEER DVD-RW DVR-K16S Adapter: 0 ID: 0
Режим чтения : Достоверность
Использование точного потока : Да
Отключение кэша аудио : Да
Использование указателей C2 : Нет
Коррекция смещения при чтении : 48
Способность читать области Lead-in и Lead-out : Нет
Заполнение пропущенных сэмплов тишиной : Да
Удаление блоков с тишиной в начале и конце : Нет
При вычислениях CRC использовались нулевые сэмплы : Да
Интерфейс : Встроенный Win32-интерфейс для Win NT/2000
Выходной формат : Внутренние WAV-операции
Формат сэмплов : 44.100 Гц; 16 бит; стерео
TOC извлечённого CD
Трек | Старт | Длительность | Начальный сектор | Конечный сектор
---------------------------------------------------------------------
1 | 0:00.00 | 4:54.02 | 0 | 22051
2 | 4:54.02 | 1:09.65 | 22052 | 27291
3 | 6:03.67 | 3:47.23 | 27292 | 44339
4 | 9:51.15 | 2:34.05 | 44340 | 55894
5 | 12:25.20 | 1:35.07 | 55895 | 63026
6 | 14:00.27 | 4:48.48 | 63027 | 84674
7 | 18:49.00 | 3:00.72 | 84675 | 98246
8 | 21:49.72 | 0:24.57 | 98247 | 100103
9 | 22:14.54 | 3:14.43 | 100104 | 114696
10 | 25:29.22 | 3:10.13 | 114697 | 128959
11 | 28:39.35 | 0:48.17 | 128960 | 132576
12 | 29:27.52 | 0:34.18 | 132577 | 135144
13 | 30:01.70 | 1:55.65 | 135145 | 143834
14 | 31:57.60 | 5:22.25 | 143835 | 168009
15 | 37:20.10 | 2:27.22 | 168010 | 179056
16 | 39:47.32 | 0:21.08 | 179057 | 180639
17 | 40:08.40 | 0:55.57 | 180640 | 184821
18 | 41:04.22 | 2:54.60 | 184822 | 197931
19 | 43:59.07 | 1:16.50 | 197932 | 203681
20 | 45:15.57 | 0:36.73 | 203682 | 206454
21 | 45:52.55 | 2:44.30 | 206455 | 218784
22 | 48:37.10 | 0:50.57 | 218785 | 222591
23 | 49:27.67 | 2:47.60 | 222592 | 235176
24 | 52:15.52 | 5:59.13 | 235177 | 262114
25 | 58:14.65 | 3:18.17 | 262115 | 276981
26 | 61:33.07 | 2:03.70 | 276982 | 286276
27 | 63:37.02 | 2:07.03 | 286277 | 295804
28 | 65:44.05 | 4:59.57 | 295805 | 318286
Характеристики диапазона извлечения и сообщения об ошибках
Выбранный диапазон
Имя файла D:\Рабочий стол\Frank London - The Debt\Frank London - The Debt.wav
Пиковый уровень 98.8 %
Качество диапазона 100.0 %
CRC копии 51550E6B
Копирование... OK
Ошибок не произошло
AccurateRip: сводка
Трек 1 нет в базе данных
Трек 2 нет в базе данных
Трек 3 нет в базе данных
Трек 4 нет в базе данных
Трек 5 нет в базе данных
Трек 6 нет в базе данных
Трек 7 нет в базе данных
Трек 8 нет в базе данных
Трек 9 нет в базе данных
Трек 10 нет в базе данных
Трек 11 нет в базе данных
Трек 12 нет в базе данных
Трек 13 нет в базе данных
Трек 14 нет в базе данных
Трек 15 нет в базе данных
Трек 16 нет в базе данных
Трек 17 нет в базе данных
Трек 18 нет в базе данных
Трек 19 нет в базе данных
Трек 20 нет в базе данных
Трек 21 нет в базе данных
Трек 22 нет в базе данных
Трек 23 нет в базе данных
Трек 24 нет в базе данных
Трек 25 нет в базе данных
Трек 26 нет в базе данных
Трек 27 нет в базе данных
Трек 28 нет в базе данных
Ни одного трека нет в базе AccurateRip
Конец отчёта
Фрэнк Лондон (Frank London) - американский трубач (и не только), композитор; родился в Нью-Йорке. Ярчайшая звезда клезмерской музыки и видный представитель современного джаза. Получил степень бакалавра по афро-американской музыке в Консерватории Новой Англии (1980). Более всего известен как участник знаменитой группы "Klezmatics" (в составе которой завоевывал Grammy), а также как лидер "Klezmer Brass Allstars" и "Hasidic New Wave". Помимо этого и немалого количества "лидерских" альбомов, работал с John Zorn, Marc Ribot, Reggie Workman, Lorin Sklamberg, российской группой "Аукцыон" и палестинским скрипачом Simon Shaheen (всего он участвовал в записи более 300 CD!). Он был музыкальным руководителем "The Knee Plays" Дэвида Бирна и Роберта Вилсона; преподавал еврейскую музыку в Канаде, Крыму; продюсировал альбом цыганской звезды Эсмы Редзеповой (Esma Redzepova), был одним из основателей Духового оркестра Les Miserables (Les Miserables Brass Band) и the Klezmer Conservatory Band, является арт-директором KlezFest_а в Лондоне. Кроме того, Фрэнк писал музыку для множества кино- и театральных проектов (фильмы "The Brother from Another Planet", "Men With Guns", "The Shvitz", работал для Театра танца Pilobolus и чешско-американского театра марионеток GOLEM), эти записи и составили альбом "The Debt" (сам "The Debt" получил Гран-При Каннского кинофестиваля для короткометражек в 1993г.)
По всем вопросам пишите личное сообщение пользователю M0p94ok.
04:31
203
Нет комментариев. Ваш будет первым!