Поиск

(Avant-Garde Jazz, Post-Bop) Ray Anderson - Right Down Your Alley - 1984, FLAC (tracks+.cue) lossless

Треклист:
Ray Anderson - Right Down Your Alley
Жанр: Avant-Garde Jazz, Post-Bop
Страна-производитель диска: Italy
Год издания диска: 1984
Издатель (лейбл): Soul Note Records
Номер по каталогу: SN 121 087-2
Страна: Italy
Аудио кодек: FLAC (*.flac)
Тип рипа: tracks+.cue
Битрейт аудио: lossless
Продолжительность: 39:57
Источник (релизер): собственный рип с оригинального диска
Наличие сканов в содержимом раздачи: да
Треклист:
01. RIGHT DOWN YOUR ALLEY 7:14
02. LIMBO 6:19
03. PAUCARTAMBO 8:25
04. TAPAJACK 6:15
05. STOMPING ON ENIGMAS 5:02
06. PORTRAIT OF MARK DRESSER 6:42
 
Лог создания рипа
Exact Audio Copy V0.99 prebeta 5 from 4. May 2009
EAC extraction logfile from 17. October 2010, 23:10
Ray Anderson / Right Down Your Alley
Used drive : TSSTcorpCDDVDW SH-S222A Adapter: 1 ID: 0
Read mode : Secure
Utilize accurate stream : Yes
Defeat audio cache : Yes
Make use of C2 pointers : No
Read offset correction : 6
Overread into Lead-In and Lead-Out : No
Fill up missing offset samples with silence : Yes
Delete leading and trailing silent blocks : No
Null samples used in CRC calculations : Yes
Used interface : Native Win32 interface for Win NT & 2000
Gap handling : Appended to previous track
Used output format : User Defined Encoder
Selected bitrate : 768 kBit/s
Quality : High
Add ID3 tag : No
Command line compressor : C:\tool\Audio\Exact Audio Copy\FLAC\FLAC.EXE
Additional command line options : -V -8 -T "ARTIST=%a" -T "TITLE=%t" -T "ALBUM=%g" -T "TRACKNUMBER=%n" -T "GENRE=%m" %s
TOC of the extracted CD
Track | Start | Length | Start sector | End sector
---------------------------------------------------------
1 | 0:00.33 | 7:20.17 | 33 | 33049
2 | 7:20.50 | 6:20.35 | 33050 | 61584
3 | 13:41.10 | 8:32.05 | 61585 | 99989
4 | 22:13.15 | 6:22.70 | 99990 | 128709
5 | 28:36.10 | 5:06.33 | 128710 | 151692
6 | 33:42.43 | 6:44.10 | 151693 | 182002
Track 1
Filename C:\! RUTRACKER\ru up\Ray Anderson - Right Down Your Alley\01 - Right Down Your Alley.wav
Pre-gap length 0:00:02.33
Peak level 100.0 %
Track quality 100.0 %
Test CRC 6E178EEC
Copy CRC 6E178EEC
Track not present in AccurateRip database
Copy OK
Track 2
Filename C:\! RUTRACKER\ru up\Ray Anderson - Right Down Your Alley\02 - Limbo.wav
Pre-gap length 0:00:04.40
Peak level 99.9 %
Track quality 100.0 %
Test CRC 4657959D
Copy CRC 4657959D
Accurately ripped (confidence 2) [0FC33993]
Copy OK
Track 3
Filename C:\! RUTRACKER\ru up\Ray Anderson - Right Down Your Alley\03 - Paucartambo.wav
Pre-gap length 0:00:02.55
Peak level 100.0 %
Track quality 100.0 %
Test CRC 37F14E70
Copy CRC 37F14E70
Accurately ripped (confidence 2) [C51634B5]
Copy OK
Track 4
Filename C:\! RUTRACKER\ru up\Ray Anderson - Right Down Your Alley\04 - Tapajack.wav
Pre-gap length 0:00:03.17
Peak level 100.0 %
Track quality 100.0 %
Test CRC 90939701
Copy CRC 90939701
Accurately ripped (confidence 2) [C9E74299]
Copy OK
Track 5
Filename C:\! RUTRACKER\ru up\Ray Anderson - Right Down Your Alley\05 - Stomping On Enigmas.wav
Pre-gap length 0:00:04.27
Peak level 100.0 %
Track quality 100.0 %
Test CRC 9F3157C5
Copy CRC 9F3157C5
Accurately ripped (confidence 2) [62EB4E30]
Copy OK
Track 6
Filename C:\! RUTRACKER\ru up\Ray Anderson - Right Down Your Alley\06 - Portrait Of Mark Dresser.wav
Pre-gap length 0:00:03.38
Peak level 100.0 %
Track quality 99.9 %
Test CRC 8F6C1E7C
Copy CRC 8F6C1E7C
Accurately ripped (confidence 2) [C862A288]
Copy OK
5 track(s) accurately ripped
1 track(s) not present in the AccurateRip database
Some tracks could not be verified as accurate
No errors occurred
End of status report
 
Содержание индексной карты (.CUE)
REM GENRE Jazz
REM DATE 1984
REM DISCID 3E097A06
REM COMMENT "ExactAudioCopy v0.99pb5"
CATALOG 0000000000000
PERFORMER "Ray Anderson"
TITLE "Right Down Your Alley"
FILE "01 - Right Down Your Alley.wav" WAVE
TRACK 01 AUDIO
TITLE "Right Down Your Alley"
PERFORMER "Ray Anderson"
FLAGS PRE
PREGAP 00:00:33
INDEX 01 00:00:00
TRACK 02 AUDIO
TITLE "Limbo"
PERFORMER "Ray Anderson"
FLAGS PRE
INDEX 00 07:15:52
FILE "02 - Limbo.wav" WAVE
INDEX 01 00:00:00
TRACK 03 AUDIO
TITLE "Paucartambo"
PERFORMER "Ray Anderson"
FLAGS PRE
INDEX 00 06:17:55
FILE "03 - Paucartambo.wav" WAVE
INDEX 01 00:00:00
TRACK 04 AUDIO
TITLE "Tapajack"
PERFORMER "Ray Anderson"
FLAGS PRE
INDEX 00 08:28:63
FILE "04 - Tapajack.wav" WAVE
INDEX 01 00:00:00
TRACK 05 AUDIO
TITLE "Stomping On Enigmas"
PERFORMER "Ray Anderson"
FLAGS PRE
INDEX 00 06:18:43
FILE "05 - Stomping On Enigmas.wav" WAVE
INDEX 01 00:00:00
TRACK 06 AUDIO
TITLE "Portrait Of Mark Dresser"
PERFORMER "Ray Anderson"
FLAGS PRE
INDEX 00 05:02:70
FILE "06 - Portrait Of Mark Dresser.wav" WAVE
INDEX 01 00:00:00
Доп. информация:
Recorded February 3, 1984
Mixed February 22, 1984 at Classic Sound Studio, New York
Engineer: David Baker
 
Об альбоме (сборнике)
Trombonist Ray Anderson's third set as a leader (following fairly obscure efforts for the Auricle and Moers Music labels) uses the same trio that was on his first release. Anderson interacts closely with bassist Mark Helias and drummer Gerry Hemingway. The occasional infectious rhythms and the trombonist's often wild humor keep the music (all originals by bandmembers) from ever getting dull or predictable.
 
Состав
Ray Anderson - trombone
Mark Helias - bass
Gerry Hemingway - drums
По всем вопросам пишите личное сообщение пользователю M0p94ok.
04:32
293
Нет комментариев. Ваш будет первым!