Вы используете незарегистрированную версию компонента "Вкладки"!

Поиск

(Avant-Garde, Free Music) Hans Anliker, Hans Burgener, Michael Lytle, Martin Schuetz - Arnold Bombs and Fireflys - 1993, FLAC (tracks+.cue) lossless

Треклист:
Hans Anliker, Hans Burgener, Michael Lytle, Martin Schuetz - Arnold Bombs and Fireflys
Жанр: Avant-Garde, Free Music
Страна-производитель диска: Switzerland
Год издания диска: 1993
Издатель (лейбл): For 4 Ears records
Номер по каталогу: CD 409
Страна: Switzerland
Аудио кодек: FLAC (*.flac)
Тип рипа: tracks+.cue
Битрейт аудио: lossless
Продолжительность: 1:10:26
Источник (релизер): собственный рип с оригинального диска
Наличие сканов в содержимом раздачи: да
Треклист:
01. Nerves 6:06
02. Please 5:05
03. Space and Pulse 4:42
04. ...It on Out 8:18
05. Air of Solitude 2:49
06. Fireflys 5:39
07. Sorry Mamma 9:19
08. Odd John 1:50
09. Leroy 4:18
10. Feather 3:25
11. Peace 3:12
12. Bombay in Scotland 5:24
13. Arnold 5:17
14. Lester 5:02
 
Лог создания рипа
Exact Audio Copy V0.99 prebeta 5 from 4. May 2009
EAC extraction logfile from 17. October 2010, 22:08
Anliker - Burgener - Lytle - Schutz / Arnold Bombs and Fireflys
Used drive : TSSTcorpCDDVDW SH-S222A Adapter: 1 ID: 0
Read mode : Secure
Utilize accurate stream : Yes
Defeat audio cache : Yes
Make use of C2 pointers : No
Read offset correction : 6
Overread into Lead-In and Lead-Out : No
Fill up missing offset samples with silence : Yes
Delete leading and trailing silent blocks : No
Null samples used in CRC calculations : Yes
Used interface : Native Win32 interface for Win NT & 2000
Gap handling : Appended to previous track
Used output format : User Defined Encoder
Selected bitrate : 768 kBit/s
Quality : High
Add ID3 tag : No
Command line compressor : C:\tool\Audio\Exact Audio Copy\FLAC\FLAC.EXE
Additional command line options : -V -8 -T "ARTIST=%a" -T "TITLE=%t" -T "ALBUM=%g" -T "TRACKNUMBER=%n" -T "GENRE=%m" %s
TOC of the extracted CD
Track | Start | Length | Start sector | End sector
---------------------------------------------------------
1 | 0:00.00 | 6:06.62 | 0 | 27511
2 | 6:06.62 | 5:05.00 | 27512 | 50386
3 | 11:11.62 | 4:42.00 | 50387 | 71536
4 | 15:53.62 | 8:18.00 | 71537 | 108886
5 | 24:11.62 | 2:49.00 | 108887 | 121561
6 | 27:00.62 | 5:39.00 | 121562 | 146986
7 | 32:39.62 | 9:19.00 | 146987 | 188911
8 | 41:58.62 | 1:50.00 | 188912 | 197161
9 | 43:48.62 | 4:18.00 | 197162 | 216511
10 | 48:06.62 | 3:25.00 | 216512 | 231886
11 | 51:31.62 | 3:12.00 | 231887 | 246286
12 | 54:43.62 | 5:24.00 | 246287 | 270586
13 | 60:07.62 | 5:17.00 | 270587 | 294361
14 | 65:24.62 | 5:02.13 | 294362 | 317024
Track 1
Filename C:\! RUTRACKER\ru up\Anliker - Arnold Bombs and Fireflys\01 - Nerves.wav
Pre-gap length 0:00:02.00
Peak level 91.4 %
Track quality 100.0 %
Test CRC C569156F
Copy CRC C569156F
Track not present in AccurateRip database
Copy OK
Track 2
Filename C:\! RUTRACKER\ru up\Anliker - Arnold Bombs and Fireflys\02 - Please.wav
Peak level 46.8 %
Track quality 100.0 %
Test CRC 9FCD0EAB
Copy CRC 9FCD0EAB
Track not present in AccurateRip database
Copy OK
Track 3
Filename C:\! RUTRACKER\ru up\Anliker - Arnold Bombs and Fireflys\03 - Space and pulse.wav
Peak level 91.4 %
Track quality 100.0 %
Test CRC 4377F654
Copy CRC 4377F654
Track not present in AccurateRip database
Copy OK
Track 4
Filename C:\! RUTRACKER\ru up\Anliker - Arnold Bombs and Fireflys\04 - ...it on out.wav
Peak level 91.3 %
Track quality 100.0 %
Test CRC D1C65670
Copy CRC D1C65670
Track not present in AccurateRip database
Copy OK
Track 5
Filename C:\! RUTRACKER\ru up\Anliker - Arnold Bombs and Fireflys\05 - Air of solitude.wav
Peak level 91.6 %
Track quality 99.9 %
Test CRC C904A7D7
Copy CRC C904A7D7
Track not present in AccurateRip database
Copy OK
Track 6
Filename C:\! RUTRACKER\ru up\Anliker - Arnold Bombs and Fireflys\06 - Fireflys.wav
Peak level 92.3 %
Track quality 100.0 %
Test CRC 119232A9
Copy CRC 119232A9
Track not present in AccurateRip database
Copy OK
Track 7
Filename C:\! RUTRACKER\ru up\Anliker - Arnold Bombs and Fireflys\07 - Sorry Mamma.wav
Peak level 91.1 %
Track quality 100.0 %
Test CRC F6EF12F3
Copy CRC F6EF12F3
Track not present in AccurateRip database
Copy OK
Track 8
Filename C:\! RUTRACKER\ru up\Anliker - Arnold Bombs and Fireflys\08 - Odd John.wav
Peak level 90.9 %
Track quality 100.0 %
Test CRC 3AF97C7E
Copy CRC 3AF97C7E
Track not present in AccurateRip database
Copy OK
Track 9
Filename C:\! RUTRACKER\ru up\Anliker - Arnold Bombs and Fireflys\09 - Leroy.wav
Peak level 62.7 %
Track quality 99.9 %
Test CRC 1843E3EB
Copy CRC 1843E3EB
Track not present in AccurateRip database
Copy OK
Track 10
Filename C:\! RUTRACKER\ru up\Anliker - Arnold Bombs and Fireflys\10 - Feather.wav
Peak level 86.9 %
Track quality 100.0 %
Test CRC 3B825B66
Copy CRC 3B825B66
Track not present in AccurateRip database
Copy OK
Track 11
Filename C:\! RUTRACKER\ru up\Anliker - Arnold Bombs and Fireflys\11 - Peace.wav
Peak level 30.1 %
Track quality 100.0 %
Test CRC 357C4877
Copy CRC 357C4877
Track not present in AccurateRip database
Copy OK
Track 12
Filename C:\! RUTRACKER\ru up\Anliker - Arnold Bombs and Fireflys\12 - Bombay in Scotland.wav
Peak level 91.6 %
Track quality 100.0 %
Test CRC FBDB3BB2
Copy CRC FBDB3BB2
Track not present in AccurateRip database
Copy OK
Track 13
Filename C:\! RUTRACKER\ru up\Anliker - Arnold Bombs and Fireflys\13 - Arnold.wav
Peak level 91.3 %
Track quality 100.0 %
Test CRC 473420A8
Copy CRC 473420A8
Track not present in AccurateRip database
Copy OK
Track 14
Filename C:\! RUTRACKER\ru up\Anliker - Arnold Bombs and Fireflys\14 - Lester.wav
Peak level 87.9 %
Track quality 99.9 %
Test CRC 71CCF0DB
Copy CRC 71CCF0DB
Track not present in AccurateRip database
Copy OK
None of the tracks are present in the AccurateRip database
No errors occurred
End of status report
 
Содержание индексной карты (.CUE)
REM GENRE "Avat Garde"
REM DATE 1992
REM DISCID D410830E
REM COMMENT "ExactAudioCopy v0.99pb5"
PERFORMER "Anliker - Burgener - Lytle - Schutz"
TITLE "Arnold Bombs and Fireflys"
FILE "01 - Nerves.wav" WAVE
TRACK 01 AUDIO
TITLE "Nerves"
PERFORMER "Anliker - Burgener - Lytle - Schutz"
INDEX 01 00:00:00
FILE "02 - Please.wav" WAVE
TRACK 02 AUDIO
TITLE "Please"
PERFORMER "Anliker - Burgener - Lytle - Schutz"
INDEX 01 00:00:00
FILE "03 - Space and pulse.wav" WAVE
TRACK 03 AUDIO
TITLE "Space and pulse"
PERFORMER "Anliker - Burgener - Lytle - Schutz"
INDEX 01 00:00:00
FILE "04 - ...it on out.wav" WAVE
TRACK 04 AUDIO
TITLE "...it on out"
PERFORMER "Anliker - Burgener - Lytle - Schutz"
INDEX 01 00:00:00
FILE "05 - Air of solitude.wav" WAVE
TRACK 05 AUDIO
TITLE "Air of solitude"
PERFORMER "Anliker - Burgener - Lytle - Schutz"
INDEX 01 00:00:00
FILE "06 - Fireflys.wav" WAVE
TRACK 06 AUDIO
TITLE "Fireflys"
PERFORMER "Anliker - Burgener - Lytle - Schutz"
INDEX 01 00:00:00
FILE "07 - Sorry Mamma.wav" WAVE
TRACK 07 AUDIO
TITLE "Sorry Mamma"
PERFORMER "Anliker - Burgener - Lytle - Schutz"
INDEX 01 00:00:00
FILE "08 - Odd John.wav" WAVE
TRACK 08 AUDIO
TITLE "Odd John"
PERFORMER "Anliker - Burgener - Lytle - Schutz"
INDEX 01 00:00:00
FILE "09 - Leroy.wav" WAVE
TRACK 09 AUDIO
TITLE "Leroy"
PERFORMER "Anliker - Burgener - Lytle - Schutz"
INDEX 01 00:00:00
FILE "10 - Feather.wav" WAVE
TRACK 10 AUDIO
TITLE "Feather"
PERFORMER "Anliker - Burgener - Lytle - Schutz"
INDEX 01 00:00:00
FILE "11 - Peace.wav" WAVE
TRACK 11 AUDIO
TITLE "Peace"
PERFORMER "Anliker - Burgener - Lytle - Schutz"
INDEX 01 00:00:00
FILE "12 - Bombay in Scotland.wav" WAVE
TRACK 12 AUDIO
TITLE "Bombay in Scotland"
PERFORMER "Anliker - Burgener - Lytle - Schutz"
INDEX 01 00:00:00
FILE "13 - Arnold.wav" WAVE
TRACK 13 AUDIO
TITLE "Arnold"
PERFORMER "Anliker - Burgener - Lytle - Schutz"
INDEX 01 00:00:00
FILE "14 - Lester.wav" WAVE
TRACK 14 AUDIO
TITLE "Lester"
PERFORMER "Anliker - Burgener - Lytle - Schutz"
INDEX 01 00:00:00
Доп. информация:
Recorded on 27 February to 1 March 1992 at Studio Rastral, Grenchen, Switzerland.
Design by Jürg Nigg.
 
Об исполнителе (группе)
«Hans Anliker, Hans Burgener, Martin Schutz invitent le clarinetiste américain Michael Lytle pour des improvisations délirantes et grinçantes à souhait, nerveuses souvent, aux sonorités quelque fois sombres sur un rythme lancinant, des improvisations qui se révèlent être un mélange explosif.»
 
Об альбоме (сборнике)
«This Swiss-American free music quartet has interesting possibilities which the players explore well. It's much lighter than the sledgehammer blowing that usually comes under the free jazz banner. ... this is worth checking out.»
 
Состав
Hans Anliker - trombone
Hans Burgener - acc. violin, el. violin
Michael Lytle - bass clarinet, contrabass clarinet
Martin Schütz - acc. cello, el. 5-string cello
По всем вопросам пишите личное сообщение пользователю M0p94ok.
04:33
239
Нет комментариев. Ваш будет первым!