Вы используете незарегистрированную версию компонента "Вкладки"!

Поиск

(Free Jazz) another INTERface - Live at the BIM - 1997, FLAC (tracks+.cue) lossless

Треклист:
another INTERface - Live at the BIM
Жанр: Free Jazz
Страна-производитель диска: USA
Год издания диска: 1997
Издатель (лейбл): ReEntry Records
Номер по каталогу: CD 017
Страна: USA
Аудио кодек: FLAC (*.flac)
Тип рипа: tracks+.cue
Битрейт аудио: lossless
Продолжительность: 1:11:43
Источник (релизер): собственный рип с оригинального диска
Наличие сканов в содержимом раздачи: да
Треклист:
01. What If? (Fischer, Interface , Morris ) 7:10
02. Proposition (Fischer) 10:20
03. Fast as Heck (Rythamathing) (Monk) 5:51
04. MM Blues (Fischer) 7:13
05. Amsterdam Polka (Fischer) 6:15
06. Foggy (Fischer) 7:18
07. Tolls Fantasy (Fischer) 5:42
08. Fast as Heck #2 (Fischer) 4:21
09. Jitterbug Waltz (Maltby, Waller) 5:00
10. Deep Blue Lake (Fischer) 4:24
11. Don't Get Around Much Anymore (Ellington, Russell) 3:43
12. The Man I Love (Gershwin) 2:29
 
Лог создания рипа
Exact Audio Copy V0.99 prebeta 5 from 4. May 2009
EAC extraction logfile from 17. October 2010, 20:39
another INTERface / Live at the BIM
Used drive : TSSTcorpCDDVDW SH-S222A Adapter: 1 ID: 0
Read mode : Secure
Utilize accurate stream : Yes
Defeat audio cache : Yes
Make use of C2 pointers : No
Read offset correction : 6
Overread into Lead-In and Lead-Out : No
Fill up missing offset samples with silence : Yes
Delete leading and trailing silent blocks : No
Null samples used in CRC calculations : Yes
Used interface : Native Win32 interface for Win NT & 2000
Gap handling : Appended to previous track
Used output format : User Defined Encoder
Selected bitrate : 768 kBit/s
Quality : High
Add ID3 tag : No
Command line compressor : C:\tool\Audio\Exact Audio Copy\FLAC\FLAC.EXE
Additional command line options : -V -8 -T "ARTIST=%a" -T "TITLE=%t" -T "ALBUM=%g" -T "TRACKNUMBER=%n" -T "GENRE=%m" %s
TOC of the extracted CD
Track | Start | Length | Start sector | End sector
---------------------------------------------------------
1 | 0:00.00 | 7:10.62 | 0 | 32311
2 | 7:10.62 | 10:20.48 | 32312 | 78859
3 | 17:31.35 | 5:51.00 | 78860 | 105184
4 | 23:22.35 | 7:13.37 | 105185 | 137696
5 | 30:35.72 | 6:15.60 | 137697 | 165881
6 | 36:51.57 | 7:18.58 | 165882 | 198789
7 | 44:10.40 | 5:42.52 | 198790 | 224491
8 | 49:53.17 | 4:21.68 | 224492 | 244134
9 | 54:15.10 | 5:00.02 | 244135 | 266636
10 | 59:15.12 | 4:24.13 | 266637 | 286449
11 | 63:39.25 | 3:43.45 | 286450 | 303219
12 | 67:22.70 | 2:29.45 | 303220 | 314439
Track 1
Filename C:\! RUTRACKER\ru up\another INTERface\01 - What if.wav
Pre-gap length 0:00:02.00
Peak level 95.7 %
Track quality 100.0 %
Test CRC 53AFB6C4
Copy CRC 53AFB6C4
Track not present in AccurateRip database
Copy OK
Track 2
Filename C:\! RUTRACKER\ru up\another INTERface\02 - Proposition.wav
Pre-gap length 0:00:05.10
Peak level 80.9 %
Track quality 99.9 %
Test CRC CD50D5C3
Copy CRC CD50D5C3
Track not present in AccurateRip database
Copy OK
Track 3
Filename C:\! RUTRACKER\ru up\another INTERface\03 - Fast as Heck (Rythamathing).wav
Pre-gap length 0:00:05.08
Peak level 99.8 %
Track quality 99.9 %
Test CRC 8CFF10DB
Copy CRC 8CFF10DB
Track not present in AccurateRip database
Copy OK
Track 4
Filename C:\! RUTRACKER\ru up\another INTERface\04 - Mm Blues.wav
Pre-gap length 0:00:05.45
Peak level 87.6 %
Track quality 100.0 %
Test CRC 5F333230
Copy CRC 5F333230
Track not present in AccurateRip database
Copy OK
Track 5
Filename C:\! RUTRACKER\ru up\another INTERface\05 - Amsterdam Polka.wav
Pre-gap length 0:00:04.40
Peak level 71.2 %
Track quality 100.0 %
Test CRC DC8E2BA2
Copy CRC DC8E2BA2
Track not present in AccurateRip database
Copy OK
Track 6
Filename C:\! RUTRACKER\ru up\another INTERface\06 - Foggy.wav
Pre-gap length 0:00:06.42
Peak level 65.5 %
Track quality 100.0 %
Test CRC C23CDE69
Copy CRC C23CDE69
Track not present in AccurateRip database
Copy OK
Track 7
Filename C:\! RUTRACKER\ru up\another INTERface\07 - Tolls Fantasy.wav
Pre-gap length 0:00:04.63
Peak level 72.7 %
Track quality 99.9 %
Test CRC C7AC61DF
Copy CRC C7AC61DF
Track not present in AccurateRip database
Copy OK
Track 8
Filename C:\! RUTRACKER\ru up\another INTERface\08 - Fast as Heck # 2.wav
Pre-gap length 0:00:04.12
Peak level 99.9 %
Track quality 100.0 %
Test CRC 96FEB2F3
Copy CRC 96FEB2F3
Track not present in AccurateRip database
Copy OK
Track 9
Filename C:\! RUTRACKER\ru up\another INTERface\09 - Jitterburg Waltz.wav
Pre-gap length 0:00:03.15
Peak level 76.6 %
Track quality 100.0 %
Test CRC 2D98375B
Copy CRC 2D98375B
Track not present in AccurateRip database
Copy OK
Track 10
Filename C:\! RUTRACKER\ru up\another INTERface\10 - Deep Blue Lake.wav
Pre-gap length 0:00:03.25
Peak level 85.2 %
Track quality 100.0 %
Test CRC 0E13ADB0
Copy CRC 0E13ADB0
Track not present in AccurateRip database
Copy OK
Track 11
Filename C:\! RUTRACKER\ru up\another INTERface\11 - Don't Get Around Much Anymore.wav
Pre-gap length 0:00:03.33
Peak level 94.4 %
Track quality 100.0 %
Test CRC 1E6A4C1D
Copy CRC 1E6A4C1D
Track not present in AccurateRip database
Copy OK
Track 12
Filename C:\! RUTRACKER\ru up\another INTERface\12 - The Man I Love.wav
Pre-gap length 0:00:04.00
Peak level 99.6 %
Track quality 100.0 %
Test CRC 1F15B905
Copy CRC 1F15B905
Track not present in AccurateRip database
Copy OK
None of the tracks are present in the AccurateRip database
No errors occurred
End of status report
 
Содержание индексной карты (.CUE)
REM GENRE "Free Jazz"
REM DATE 1996
REM DISCID 9F10600C
REM COMMENT "ExactAudioCopy v0.99pb5"
CATALOG 0000000000000
PERFORMER "another INTERface"
TITLE "Live at the BIM"
FILE "01 - What if.wav" WAVE
TRACK 01 AUDIO
TITLE "What if"
PERFORMER "another INTERface"
INDEX 01 00:00:00
TRACK 02 AUDIO
TITLE "Proposition"
PERFORMER "another INTERface"
INDEX 00 07:05:52
FILE "02 - Proposition.wav" WAVE
INDEX 01 00:00:00
TRACK 03 AUDIO
TITLE "Fast as Heck (Rythamathing)"
PERFORMER "another INTERface"
INDEX 00 10:15:40
FILE "03 - Fast as Heck (Rythamathing).wav" WAVE
INDEX 01 00:00:00
TRACK 04 AUDIO
TITLE "Mm Blues"
PERFORMER "another INTERface"
INDEX 00 05:45:30
FILE "04 - Mm Blues.wav" WAVE
INDEX 01 00:00:00
TRACK 05 AUDIO
TITLE "Amsterdam Polka"
PERFORMER "another INTERface"
INDEX 00 07:08:72
FILE "05 - Amsterdam Polka.wav" WAVE
INDEX 01 00:00:00
TRACK 06 AUDIO
TITLE "Foggy"
PERFORMER "another INTERface"
INDEX 00 06:09:18
FILE "06 - Foggy.wav" WAVE
INDEX 01 00:00:00
TRACK 07 AUDIO
TITLE "Tolls Fantasy"
PERFORMER "another INTERface"
INDEX 00 07:13:70
FILE "07 - Tolls Fantasy.wav" WAVE
INDEX 01 00:00:00
TRACK 08 AUDIO
TITLE "Fast as Heck # 2"
PERFORMER "another INTERface"
INDEX 00 05:38:40
FILE "08 - Fast as Heck # 2.wav" WAVE
INDEX 01 00:00:00
TRACK 09 AUDIO
TITLE "Jitterburg Waltz"
PERFORMER "another INTERface"
INDEX 00 04:18:53
FILE "09 - Jitterburg Waltz.wav" WAVE
INDEX 01 00:00:00
TRACK 10 AUDIO
TITLE "Deep Blue Lake"
PERFORMER "another INTERface"
INDEX 00 04:56:52
FILE "10 - Deep Blue Lake.wav" WAVE
INDEX 01 00:00:00
TRACK 11 AUDIO
TITLE "Don't Get Around Much Anymore"
PERFORMER "another INTERface"
INDEX 00 04:20:55
FILE "11 - Don't Get Around Much Anymore.wav" WAVE
INDEX 01 00:00:00
TRACK 12 AUDIO
TITLE "The Man I Love"
PERFORMER "another INTERface"
INDEX 00 03:39:45
FILE "12 - The Man I Love.wav" WAVE
INDEX 01 00:00:00
Доп. информация:
Recorded Live at BIMHuis, Amsterdam, Holland, October 1st, 1996 by VPRO Radio.
"Interface is the point where things come together and communicate or coexist on the same plane."
 
Об альбоме (сборнике)
Recorded in 1996 in Amsterdam, this curious and mysterious solo and trio recording was apparently a one-off. Led by pianist John Fischer (who is a dead ringer for Albert Einstein), this set was recorded at the 20th anniversary of the Bimhuis in Amsterdam, where Fischer got his jazz start, and it features some of the pianist's best-known compositions and reinventions of others. The set opens with "What If?," a pointillistic piece that is both knotty and modal in its execution, and Arthur Blythe plays gorgeously in the intervallic shifts (Fischer has a compositional system called the Quad System where all interval relationships are broken down to four notes) by moving through with a series of thirds and ninths that blur the edges of the piano's angles. Next up is a near classical piece by Fischer performed solo, and deeply influenced by Ravel. The trio reengages with a radical reworking of Monk's "Rhythm-A-Ning" that is not unpleasant so much as it's far too afield to still be called Monk's. Why? Because it has no funk; it's an egghead version. Fischer also brings back "Mm Blues," with his four-note system that completely restructures an eight-bar blues and turns it into something Keith Jarrett might play. There are also readings of Fats Waller here that are faithful and lovely, as well as devastatingly original harmonic architectures in "Tolls Fantasy" and "Deep Blue Lake." The encores to these sets are surprising, though, in that they are very faithful readings of Ellington and Gershwin, a surprise for fans of Fischer's more outside work. They fit here, though, as this concert blends all of Fischer's influences, angles, inventions, and conceptions together into a startling whole, one that is original, vital, and demonstrably warm.
 
Состав
Arthur Blythe - alto sax
Wilber Morris - bass
John Fischer - piano
Any questions -> support@pro-jazz.com. По всем вопросам пишите -> support@pro-jazz.com
04:33
183
Нет комментариев. Ваш будет первым!