Вы используете незарегистрированную версию компонента "Вкладки"!

Поиск

(Avant-Garde / Post-Bop / Modern Creative) 8 Bold Souls - Sideshow - 1992, FLAC (image+.cue) lossless

(Avant-Garde / Post-Bop / Modern Creative) 8 Bold Souls - Sideshow - 1992, FLAC (image+.cue) lossless
Треклист:
8 Bold Souls - Sideshow

Жанр: Avant-Garde / Post-Bop / Modern Creative
Страна-производитель диска: USA
Год издания диска: 1992
Издатель (лейбл): Arabesque Recordings AJO 103
Аудио кодек: FLAC (*.flac)
Тип рипа: image+.cue
Битрейт аудио: lossless
Продолжительность: 1:05:58
Источник (релизер): собственный рип
Наличие сканов в содержимом раздачи: нет
Edward Wilkerson, Jr.: tenor, alto and bass saxophones, clarinet and alto clarinet
Mwata Bowden: clarinet, baritone and tenor saxophones
Robert Griffin: trumpet, flugelhorn
Isaiah Jackson: trombone
Aaron Dodd: tuba
Naomi Millender: cello
Harrison Bankhead: bass
Sushun Mosley: trap drums, percussion
1. Black Herman
2. Glass Breakers
3. Lonely Woman
4. Sideshow
5. Light on the Path
Recorded at Streeterville Studios, Chicago, Il on November 23,24, & 25, 1991
 
Лог создания рипа
Exact Audio Copy V0.99 prebeta 4 from 23. January 2008
EAC extraction logfile from 5. June 2010, 19:43
8 Bold Souls / Sideshow
Used drive : TSSTcorpCD/DVDW SH-S182M Adapter: 2 ID: 1
Read mode : Secure
Utilize accurate stream : Yes
Defeat audio cache : Yes
Make use of C2 pointers : No
Read offset correction : 6
Overread into Lead-In and Lead-Out : No
Fill up missing offset samples with silence : Yes
Delete leading and trailing silent blocks : No
Null samples used in CRC calculations : Yes
Used interface : Installed external ASPI interface
Used output format : User Defined Encoder
Selected bitrate : 1024 kBit/s
Quality : High
Add ID3 tag : No
Command line compressor : C:\Program Files\Exact Audio Copy\Flac\flac.exe
Additional command line options : -6 -V -T "ARTIST=%a" -T "TITLE=%t" -T "ALBUM=%g" -T "DATE=%y" -T "TRACKNUMBER=%n" -T "GENRE=%m" -T "COMMENT=EAC FLAC -6" %s
TOC of the extracted CD
Track | Start | Length | Start sector | End sector
---------------------------------------------------------
1 | 0:00.00 | 17:11.02 | 0 | 77326
2 | 17:11.02 | 10:42.25 | 77327 | 125501
3 | 27:53.27 | 16:52.58 | 125502 | 201459
4 | 44:46.10 | 13:09.60 | 201460 | 260694
5 | 57:55.70 | 8:02.20 | 260695 | 296864
Range status and errors
Selected range
Filename C:\Users\Igor\Music\eac\8 Bold Souls - Sideshow.wav
Peak level 100.0 %
Range quality 100.0 %
Test CRC 91993C2B
Copy CRC 91993C2B
Copy OK
No errors occurred
AccurateRip summary
Track 1 accurately ripped (confidence 2) [C79B46CB]
Track 2 accurately ripped (confidence 2) [2DDA09E7]
Track 3 accurately ripped (confidence 2) [2A805ED0]
Track 4 accurately ripped (confidence 2) [F03B4735]
Track 5 accurately ripped (confidence 2) [19B80C06]
All tracks accurately ripped
End of status report

8 Bold Souls - Ant Farm (1994)
8 Bold Souls - Last Option (1999)
Any questions -> support@pro-jazz.com. По всем вопросам пишите -> support@pro-jazz.com
04:31
153
Нет комментариев. Ваш будет первым!