Поиск

(Tzadik, Avant-Garde Jazz, Jazz-Rock) [CD] John Zorn (John Medeski, Matt Hollenberg, Kenny Grohowski) - Simulacrum - 2015, FLAC (tracks+.cue), lossless

(Tzadik, Avant-Garde Jazz, Jazz-Rock) [CD] John Zorn (John Medeski, Matt Hollenberg, Kenny Grohowski) - Simulacrum - 2015, FLAC (tracks+.cue), lossless
Треклист:
SIMULACRUM
JOHN ZORN
Жанр: Avant-Garde Jazz, Jazz-Rock
Страна-производитель диска: USA
Год издания: 2015
Издатель (лейбл): Tzadik
Номер по каталогу: 8330
Аудиокодек: FLAC (*.flac)
Тип рипа: tracks+.cue
Битрейт аудио: lossless
Продолжительность: 43:05
Источник (релизер): спасибо ruskaval
Наличие сканов в содержимом раздачи: да
Треклист:
1. The Illusionist
2. Marmarath
3. Snakes and Ladders
4. Alterities
5. Paradigm Shift
6. The Divine Comedy
 
Лог создания рипа
Exact Audio Copy V1.0 beta 4 from 7. December 2014
EAC extraction logfile from 22. April 2015, 18:42
John Zorn / Simulacrum
Used drive : TSSTcorpCDDVDW SE-208DB Adapter: 1 ID: 1
Read mode : Secure
Utilize accurate stream : Yes
Defeat audio cache : Yes
Make use of C2 pointers : No
Read offset correction : 6
Overread into Lead-In and Lead-Out : No
Fill up missing offset samples with silence : Yes
Delete leading and trailing silent blocks : No
Null samples used in CRC calculations : Yes
Used interface : Native Win32 interface for Win NT & 2000
Gap handling : Appended to previous track
Used output format : User Defined Encoder
Selected bitrate : 1024 kBit/s
Quality : High
Add ID3 tag : No
Command line compressor : C:\Program Files (x86)\FLAC Frontend\tools\flac.exe
Additional command line options : -8 -V -T "ARTIST=%artist%" -T "TITLE=%title%" -T "ALBUM=%albumtitle%" -T "DATE=%year%" -T "TRACKNUMBER=%tracknr%" -T "TOTALTRACKS=%numtracks%" -T "GENRE=%genre%" -T "ALBUMARTIST=%albumartist%" -T "ALBUM ARTIST=%albumartist%" -T "COMMENT=EAC Secure Mode, Test & Copy, AccurateRip, FLAC -8" %source%
TOC of the extracted CD
Track | Start | Length | Start sector | End sector
---------------------------------------------------------
1 | 0:00.00 | 12:01.74 | 0 | 54148
2 | 12:01.74 | 5:17.58 | 54149 | 77981
3 | 17:19.57 | 5:27.60 | 77982 | 102566
4 | 22:47.42 | 2:49.31 | 102567 | 115272
5 | 25:36.73 | 4:34.40 | 115273 | 135862
6 | 30:11.38 | 12:54.22 | 135863 | 193934
Track 1
Filename D:\_EAC\John Zorn - Simulacrum (2015) [FLAC] {Tzadik}\01 - The Illusionist.wav
Pre-gap length 0:00:02.00
Peak level 100.0 %
Extraction speed 1.2 X
Track quality 100.0 %
Test CRC 14E0EF4E
Copy CRC 14E0EF4E
Track not present in AccurateRip database
Copy OK
Track 2
Filename D:\_EAC\John Zorn - Simulacrum (2015) [FLAC] {Tzadik}\02 - Marmarath.wav
Peak level 95.2 %
Extraction speed 1.3 X
Track quality 100.0 %
Test CRC 03067C9F
Copy CRC 03067C9F
Track not present in AccurateRip database
Copy OK
Track 3
Filename D:\_EAC\John Zorn - Simulacrum (2015) [FLAC] {Tzadik}\03 - Snakes and Ladders.wav
Peak level 95.4 %
Extraction speed 1.4 X
Track quality 100.0 %
Test CRC 7E2841CA
Copy CRC 7E2841CA
Track not present in AccurateRip database
Copy OK
Track 4
Filename D:\_EAC\John Zorn - Simulacrum (2015) [FLAC] {Tzadik}\04 - Alterities.wav
Peak level 97.1 %
Extraction speed 1.3 X
Track quality 100.0 %
Test CRC 5777F9E8
Copy CRC 5777F9E8
Track not present in AccurateRip database
Copy OK
Track 5
Filename D:\_EAC\John Zorn - Simulacrum (2015) [FLAC] {Tzadik}\05 - Paradigm Shift.wav
Peak level 95.0 %
Extraction speed 1.3 X
Track quality 99.9 %
Test CRC E90C6185
Copy CRC E90C6185
Track not present in AccurateRip database
Copy OK
Track 6
Filename D:\_EAC\John Zorn - Simulacrum (2015) [FLAC] {Tzadik}\06 - The Divine Comedy.wav
Peak level 96.6 %
Extraction speed 1.8 X
Track quality 100.0 %
Test CRC D5441165
Copy CRC D5441165
Track not present in AccurateRip database
Copy OK
None of the tracks are present in the AccurateRip database
No errors occurred
End of status report
==== Log checksum 9C91546EEF29C1CBECB4E039DC6AF7D8F99EA66E172DA3E30DED1D23B0235436 ====
 
Содержание индексной карты (.CUE)
REM GENRE Jazz
REM DATE 2015
REM DISCID 450A1906
REM COMMENT "ExactAudioCopy v1.0b4"
PERFORMER "John Zorn"
TITLE "Simulacrum"
FILE "01 - The Illusionist.wav" WAVE
TRACK 01 AUDIO
TITLE "The Illusionist"
PERFORMER "John Zorn"
FLAGS DCP
INDEX 01 00:00:00
FILE "02 - Marmarath.wav" WAVE
TRACK 02 AUDIO
TITLE "Marmarath"
PERFORMER "John Zorn"
FLAGS DCP
INDEX 01 00:00:00
FILE "03 - Snakes and Ladders.wav" WAVE
TRACK 03 AUDIO
TITLE "Snakes and Ladders"
PERFORMER "John Zorn"
FLAGS DCP
INDEX 01 00:00:00
FILE "04 - Alterities.wav" WAVE
TRACK 04 AUDIO
TITLE "Alterities"
PERFORMER "John Zorn"
FLAGS DCP
INDEX 01 00:00:00
FILE "05 - Paradigm Shift.wav" WAVE
TRACK 05 AUDIO
TITLE "Paradigm Shift"
PERFORMER "John Zorn"
FLAGS DCP
INDEX 01 00:00:00
FILE "06 - The Divine Comedy.wav" WAVE
TRACK 06 AUDIO
TITLE "The Divine Comedy"
PERFORMER "John Zorn"
FLAGS DCP
INDEX 01 00:00:00
 
Об альбоме
John Zorn’s legacy as a major force of modern creative music is set in stone at this point. But one factor that continues to set him apart is the remarkable breadth found in his compositions and recordings. From classical to free jazz, to middle-eastern music to controlled-improvisation, to soundtracks and more, Zorn has nearly done it all. He has recorded in these styles on many different occasions with a variety of co-conspirators. Therefore, Simulacrum, featuring an aggressive organ trio, should surprise no one, despite being unlike much of his previous material.
The recording features John Medeski (Medeski, Martin, and Wood) on organ, Kenny Grohowski (Abraxas) on drums, and Matt Hollenberg (Cleric) on guitar. Zorn does not actually play, but is credited with composition and arrangements. Of the three instrumentalists, Hollenberg is well known in the heavy metal community, Grohowski to a lesser extent, and Medeski of course is a frequent Zorn collaborator and an established experimenter. Despite the trio’s varied background, Simulacrum arguably focuses on progressive metal (e.g., Fates Warning, Sleepytime Gorilla Museum, The Dillinger Escape Plan), 90’s technical metal (e.g., Watchtower, Spastic Ink, Cynic, Atheist) and math rock with heavy riffing, busy double-bass drumming, and angular lines. In particular, if Medeski were replaced by a bassist, Simulacrum would be familiar territory.
But, the heavy organ adds a unique feel, and one not necessarily reminiscent of the pioneering hard-rock work of Deep Purple‘s Jon Lord. Instead, Medeski brings a unique jazz and blues inflection to the mix. While Hollenberg’s guitar often takes the lead, Medeski occasionally takes over, building tense, swirling themes. Grohowski mostly avoids blast-beats, and instead relies on punctuated drumming with rapid fills. As a result, even though the 43 minutes of Simulacrum covers a variety metal tropes, albeit with organ-based atmospherics, the ultimate outcome is a fresh sound.
In true Zorn “if its worth doing once, its worth doing a few more times” style, this release is apparently one of at least three written for the trio, with a second already recorded. It will be interesting to hear what these collaborators can do with another 80-plus minutes of this format. (avantmusicnews.com)
 
Состав
John Medeski - organ
Matt Hollenberg - guitar
Kenny Grohowski - drums
John Zorn - composer, arranger
По всем вопросам пишите личное сообщение пользователю M0p94ok.
12:54
241
Нет комментариев. Ваш будет первым!