Вы используете незарегистрированную версию компонента "Вкладки"!

Поиск

(Free Jazz, Free Improvisation) [CD] The Electrics (Sture Ericson, Axel Dorner, Ingebrigt Haker Flaten, Raymond Strid) - Chain of Accidents - 2002, FLAC (tracks+.cue), lossless

(Free Jazz, Free Improvisation) [CD] The Electrics (Sture Ericson, Axel Dorner, Ingebrigt Haker Flaten, Raymond Strid) - Chain of Accidents - 2002, FLAC (tracks+.cue), lossless
Треклист:
The Electrics / Chain of Accidents
Жанр: Free Jazz, Free Improvisation
Носитель: CD
Страна-производитель диска (релиза): Sweden
Год издания: 2002
Издатель (лейбл): Ayler Records
Номер по каталогу: aylCD-035
Аудиокодек: FLAC (*.flac)
Тип рипа: tracks+.cue
Битрейт аудио: lossless
Продолжительность: 65:30
Источник (релизер): cd
Наличие сканов в содержимом раздачи: нет
Треклист:
1. Chain Of Accidents 21:00
2. Change Of Accidents 25:43
3. Exchange Of Accidents 9:41
4. Accidents By Chance 9:05
 
Лог создания рипа
Exact Audio Copy V1.0 beta 3 from 29. August 2011
EAC extraction logfile from 23. April 2015, 8:54
The Electrics / Chain of Accidents
Used drive : ASUS DRW-24F1ST a Adapter: 0 ID: 0
Read mode : Secure
Utilize accurate stream : Yes
Defeat audio cache : Yes
Make use of C2 pointers : No
Read offset correction : 6
Overread into Lead-In and Lead-Out : No
Fill up missing offset samples with silence : Yes
Delete leading and trailing silent blocks : No
Null samples used in CRC calculations : Yes
Used interface : Native Win32 interface for Win NT & 2000
Gap handling : Appended to previous track
Used output format : User Defined Encoder
Selected bitrate : 320 kBit/s
Quality : High
Add ID3 tag : No
Command line compressor : D:\Programs\Exact Audio Copy\Flac\flac.exe
Additional command line options : -V -8 -T "Genre=%genre%" -T "Artist=%artist%" -T "Title=%title%" -T "Album=%albumtitle%" -T "Date=%year%" -T "Tracknumber=%tracknr%" -T "Comment=%comment%" %source%
TOC of the extracted CD
Track | Start | Length | Start sector | End sector
---------------------------------------------------------
1 | 0:00.00 | 21:06.64 | 0 | 95013
2 | 21:06.64 | 25:43.08 | 95014 | 210746
3 | 46:49.72 | 9:37.68 | 210747 | 254089
4 | 56:27.65 | 9:02.63 | 254090 | 294802
Track 1
Filename D:\EAC\01 Chain of Accidents.wav
Pre-gap length 0:00:02.00
Peak level 98.6 %
Extraction speed 6.1 X
Track quality 100.0 %
Test CRC 11B3D2C6
Copy CRC 11B3D2C6
Copy OK
Track 2
Filename D:\EAC\02 Change of Accidents.wav
Peak level 98.6 %
Extraction speed 8.0 X
Track quality 99.9 %
Test CRC 5FF3ADD7
Copy CRC 5FF3ADD7
Copy OK
Track 3
Filename D:\EAC\03 Exchange of Accidents.wav
Peak level 97.4 %
Extraction speed 9.1 X
Track quality 100.0 %
Test CRC C6E74EB3
Copy CRC C6E74EB3
Copy OK
Track 4
Filename D:\EAC\04 Accidents by Chance.wav
Peak level 100.0 %
Extraction speed 8.9 X
Track quality 99.9 %
Test CRC C2775163
Copy CRC C2775163
Copy OK
No errors occurred
End of status report
==== Log checksum B82244A630DE672222B3F87BFAAC8C939EFF391CF20F2AE411D918AB84983468 ====
 
Содержание индексной карты (.CUE)
REM GENRE Jazz
REM DATE 2002
REM DISCID 360F5A04
REM COMMENT "ExactAudioCopy v1.0b3"
PERFORMER "The Electrics"
TITLE "Chain of Accidents"
FILE "01 Chain of Accidents.wav" WAVE
TRACK 01 AUDIO
TITLE "Chain of Accidents"
PERFORMER "The Electrics"
INDEX 01 00:00:00
FILE "02 Change of Accidents.wav" WAVE
TRACK 02 AUDIO
TITLE "Change of Accidents"
PERFORMER "The Electrics"
INDEX 01 00:00:00
FILE "03 Exchange of Accidents.wav" WAVE
TRACK 03 AUDIO
TITLE "Exchange of Accidents"
PERFORMER "The Electrics"
INDEX 01 00:00:00
FILE "04 Accidents by Chance.wav" WAVE
TRACK 04 AUDIO
TITLE "Accidents by Chance"
PERFORMER "The Electrics"
INDEX 01 00:00:00
Доп. информация: Recorded on 27 April 2000 at Copenhagen JazzHouse, Copenhagen, Denmark
 
Об альбоме (сборнике)
The Electrics are an all-acoustic free improv quartet. They do deserve their name, however, at least judging from this highly charged performance recorded in Copenhagen (Denmark) on April 27, 2000. This is one of the group's first meetings, because they made their inaugural tour that month. A pan-European affair, the quartet features the front line of Swedish saxophonist Sture Ericson and German trumpeter Axel Dörner. Ericson is a powerful free jazz blower. He favors emotion and excitement over technique, even if it means running into an occasional cliché. Dörner has been building a reputation as a supporter (and pioneer) of reductionism, together with Radu Malfatti and Franz Hautzinger, but in parallel to his sparse, highly experimental recordings, he still enjoys more maximalist settings (check out his group Die Enttaüschung). His solo in "Change of Accidents" soars almost melodically. That extended piece also features solo spotlights for the two members of the rhythm section: Norwegian bassist Ingebrigt Håker Flaten (of Atomic) and Swedish drummer Raymond Strid. Flaten can launch a mean ostinato to propel the group. He also displays feverish arco playing. Strid is equal to himself, delightfully resourceful. Despite its freely improvised nature, the music of The Electrics remains deeply rooted in jazz. Ericson sounds like he has learned a lot from fire music's legends. The instant vamp appearing six minutes into "Accidents by Chance" constitutes proof that the hearts of the four musicians beat to the same groove: a sinuous instant melody, a walking bassline, incredible synergy between all players to bring things to a gentle, seducing halt. Real, live, modern, jazz. Superb.
 
Состав
Bass – Ingebrigt Håker Flaten
Drums – Raymond Strid
Tenor Saxophone, Baritone Saxophone, Bass Clarinet – Sture Ericson
Trumpet, Trumpet [Slide] – Axel Dörner
По всем вопросам пишите личное сообщение пользователю M0p94ok.
11:15
205
Нет комментариев. Ваш будет первым!