Вы используете незарегистрированную версию компонента "Вкладки"!

Поиск

(Free Jazz, Free Improvisation) [CD] Ivo Perelman, Jay Rosen - The Hammer - 2000, FLAC (tracks+.cue), lossless

(Free Jazz, Free Improvisation) [CD] Ivo Perelman, Jay Rosen - The Hammer - 2000, FLAC (tracks+.cue), lossless
Треклист:
Ivo Perelman, Jay Rosen / The Hammer
Жанр: Free Jazz, Free Improvisation
Носитель: CD
Страна-производитель диска (релиза): UK
Год издания: 2000
Издатель (лейбл): Leo Records
Номер по каталогу: CD LR 286
Аудиокодек: FLAC (*.flac)
Тип рипа: tracks+.cue
Битрейт аудио: lossless
Продолжительность: 51:38
Источник (релизер): CD
Наличие сканов в содержимом раздачи: нет
Треклист:
1. The Hammer 8:39
2. Frying Pan Destruction 2:28
3. Abstinence 5:28
4. Five Avocados 5:21
5. The Fine Points Of Living 5:09
6. Milky Selma 6:08
7. The Shelton Hotel 2:29
8. What's Your Favorite Subaru Dealer? 3:09
9. The No-Business Business 1:37
10. Two Weeks That Changed One's Life 4:42
11. Too Many Clowns For A Small Circus 1:25
12. Plant Life 4:59
 
Лог создания рипа
Exact Audio Copy V1.0 beta 3 from 29. August 2011
EAC extraction logfile from 21. April 2015, 12:44
Ivo Perelman, Jay Rosen / The Hammer
Used drive : ASUS DRW-24F1ST a Adapter: 0 ID: 0
Read mode : Secure
Utilize accurate stream : Yes
Defeat audio cache : Yes
Make use of C2 pointers : No
Read offset correction : 6
Overread into Lead-In and Lead-Out : No
Fill up missing offset samples with silence : Yes
Delete leading and trailing silent blocks : No
Null samples used in CRC calculations : Yes
Used interface : Native Win32 interface for Win NT & 2000
Gap handling : Appended to previous track
Used output format : User Defined Encoder
Selected bitrate : 320 kBit/s
Quality : High
Add ID3 tag : No
Command line compressor : D:\Programs\Exact Audio Copy\Flac\flac.exe
Additional command line options : -V -8 -T "Genre=%genre%" -T "Artist=%artist%" -T "Title=%title%" -T "Album=%albumtitle%" -T "Date=%year%" -T "Tracknumber=%tracknr%" -T "Comment=%comment%" %source%
TOC of the extracted CD
Track | Start | Length | Start sector | End sector
---------------------------------------------------------
1 | 0:00.00 | 8:39.07 | 0 | 38931
2 | 8:39.07 | 2:28.30 | 38932 | 50061
3 | 11:07.37 | 5:28.00 | 50062 | 74661
4 | 16:35.37 | 5:21.15 | 74662 | 98751
5 | 21:56.52 | 5:09.08 | 98752 | 121934
6 | 27:05.60 | 6:08.30 | 121935 | 149564
7 | 33:14.15 | 2:29.30 | 149565 | 160769
8 | 35:43.45 | 3:09.37 | 160770 | 174981
9 | 38:53.07 | 1:37.68 | 174982 | 182324
10 | 40:31.00 | 4:42.52 | 182325 | 203526
11 | 45:13.52 | 1:25.38 | 203527 | 209939
12 | 46:39.15 | 4:59.20 | 209940 | 232384
Track 1
Filename D:\EAC\01 The Hammer.wav
Pre-gap length 0:00:02.00
Peak level 96.6 %
Extraction speed 5.3 X
Track quality 100.0 %
Test CRC 4EBE2034
Copy CRC 4EBE2034
Copy OK
Track 2
Filename D:\EAC\02 Frying Pan Destruction.wav
Pre-gap length 0:00:01.47
Peak level 43.0 %
Extraction speed 4.2 X
Track quality 99.9 %
Test CRC 7E744418
Copy CRC 7E744418
Copy OK
Track 3
Filename D:\EAC\03 Abstinence.wav
Pre-gap length 0:00:01.47
Peak level 96.6 %
Extraction speed 5.5 X
Track quality 99.9 %
Test CRC 0F377639
Copy CRC 0F377639
Copy OK
Track 4
Filename D:\EAC\04 Five Avocados.wav
Pre-gap length 0:00:01.47
Peak level 86.8 %
Extraction speed 6.6 X
Track quality 100.0 %
Test CRC 6FB5CEA9
Copy CRC 6FB5CEA9
Copy OK
Track 5
Filename D:\EAC\05 The Fine Points of Living.wav
Pre-gap length 0:00:01.47
Peak level 96.6 %
Extraction speed 6.3 X
Track quality 99.9 %
Test CRC 922A74A2
Copy CRC 922A74A2
Copy OK
Track 6
Filename D:\EAC\06 Milky Selma.wav
Pre-gap length 0:00:01.47
Peak level 96.6 %
Extraction speed 7.6 X
Track quality 100.0 %
Test CRC 8CA169CC
Copy CRC 8CA169CC
Copy OK
Track 7
Filename D:\EAC\07 The Shelton Hotel.wav
Pre-gap length 0:00:01.47
Peak level 71.1 %
Extraction speed 5.7 X
Track quality 99.9 %
Test CRC 24A29973
Copy CRC 24A29973
Copy OK
Track 8
Filename D:\EAC\08 What's Your Favourite Subaru Dealer.wav
Pre-gap length 0:00:01.47
Peak level 96.6 %
Extraction speed 7.4 X
Track quality 100.0 %
Test CRC A610ADBF
Copy CRC A610ADBF
Copy OK
Track 9
Filename D:\EAC\09 The No-Business Business.wav
Pre-gap length 0:00:01.47
Peak level 58.5 %
Extraction speed 5.1 X
Track quality 99.8 %
Test CRC 46EEDF12
Copy CRC 46EEDF12
Copy OK
Track 10
Filename D:\EAC\10 Two Weeks that Changed One's Life.wav
Pre-gap length 0:00:01.47
Peak level 96.6 %
Extraction speed 8.2 X
Track quality 100.0 %
Test CRC A0AE0567
Copy CRC A0AE0567
Copy OK
Track 11
Filename D:\EAC\11 Too Many Clowns for a Small Circus.wav
Pre-gap length 0:00:01.47
Peak level 43.4 %
Extraction speed 6.5 X
Track quality 100.0 %
Test CRC 23E3416C
Copy CRC 23E3416C
Copy OK
Track 12
Filename D:\EAC\12 Plant Life.wav
Pre-gap length 0:00:01.47
Peak level 96.6 %
Extraction speed 8.6 X
Track quality 100.0 %
Test CRC 1153A9CC
Copy CRC 1153A9CC
Copy OK
No errors occurred
End of status report
==== Log checksum 19E418DD77BB51C9B7680CA6912BD33509F27F48211E37440A1633AAB7C48E68 ====
 
Содержание индексной карты (.CUE)
REM GENRE Avantgarde
REM DATE 2000
REM DISCID AD0C1A0C
REM COMMENT "ExactAudioCopy v1.0b3"
CATALOG 0000000000000
PERFORMER "Ivo Perelman, Jay Rosen"
TITLE "The Hammer"
FILE "01 The Hammer.wav" WAVE
TRACK 01 AUDIO
TITLE "The Hammer"
PERFORMER "Ivo Perelman, Jay Rosen"
FLAGS DCP
INDEX 01 00:00:00
TRACK 02 AUDIO
TITLE "Frying Pan Destruction"
PERFORMER "Ivo Perelman, Jay Rosen"
FLAGS DCP
INDEX 00 08:37:35
FILE "02 Frying Pan Destruction.wav" WAVE
INDEX 01 00:00:00
TRACK 03 AUDIO
TITLE "Abstinence"
PERFORMER "Ivo Perelman, Jay Rosen"
FLAGS DCP
INDEX 00 02:26:58
FILE "03 Abstinence.wav" WAVE
INDEX 01 00:00:00
TRACK 04 AUDIO
TITLE "Five Avocados"
PERFORMER "Ivo Perelman, Jay Rosen"
FLAGS DCP
INDEX 00 05:26:28
FILE "04 Five Avocados.wav" WAVE
INDEX 01 00:00:00
TRACK 05 AUDIO
TITLE "The Fine Points of Living"
PERFORMER "Ivo Perelman, Jay Rosen"
FLAGS DCP
INDEX 00 05:19:43
FILE "05 The Fine Points of Living.wav" WAVE
INDEX 01 00:00:00
TRACK 06 AUDIO
TITLE "Milky Selma"
PERFORMER "Ivo Perelman, Jay Rosen"
FLAGS DCP
INDEX 00 05:07:36
FILE "06 Milky Selma.wav" WAVE
INDEX 01 00:00:00
TRACK 07 AUDIO
TITLE "The Shelton Hotel"
PERFORMER "Ivo Perelman, Jay Rosen"
FLAGS DCP
INDEX 00 06:06:58
FILE "07 The Shelton Hotel.wav" WAVE
INDEX 01 00:00:00
TRACK 08 AUDIO
TITLE "What's Your Favourite Subaru Dealer?"
PERFORMER "Ivo Perelman, Jay Rosen"
FLAGS DCP
INDEX 00 02:27:58
FILE "08 What's Your Favourite Subaru Dealer.wav" WAVE
INDEX 01 00:00:00
TRACK 09 AUDIO
TITLE "The No-Business Business"
PERFORMER "Ivo Perelman, Jay Rosen"
FLAGS DCP
INDEX 00 03:07:65
FILE "09 The No-Business Business.wav" WAVE
INDEX 01 00:00:00
TRACK 10 AUDIO
TITLE "Two Weeks that Changed One's Life"
PERFORMER "Ivo Perelman, Jay Rosen"
FLAGS DCP
INDEX 00 01:36:21
FILE "10 Two Weeks that Changed One's Life.wav" WAVE
INDEX 01 00:00:00
TRACK 11 AUDIO
TITLE "Too Many Clowns for a Small Circus"
PERFORMER "Ivo Perelman, Jay Rosen"
FLAGS DCP
INDEX 00 04:41:05
FILE "11 Too Many Clowns for a Small Circus.wav" WAVE
INDEX 01 00:00:00
TRACK 12 AUDIO
TITLE "Plant Life"
PERFORMER "Ivo Perelman, Jay Rosen"
FLAGS DCP
INDEX 00 01:23:66
FILE "12 Plant Life.wav" WAVE
INDEX 01 00:00:00
Доп. информация: Recorded at Hillside, March, 1998
 
Об альбоме (сборнике)
With The Hammer, tenor saxophonist Ivo Perelman, this time in company with drummer/percussionist Jay Rosen, continues his deep exploration of the nether regions of improvised music. Spontaneously created art has long had detractors (at least among those who never had the chance to see Mozart or Pollack in action), and these nabobs of negativism have been heard to level the following charge: "If the artists are well-practiced professionals, they're just playing known riffs, and if not, what's produced is just amateur noisemaking ¬ so where's the freedom?" If music is to be truly free, the really daunting task is not to dump the charts, but to lose the easy riffs ¬ the "finger and breath memories" ¬ while maintaining the physical beauty and technical excellence of the playing. Fortunately, forward-thinking artists/seekers like Perelman (and fellow emigrant Aldous Huxley) have found a way out of this nasty dilemma with the aid of techniques created by Australian iconoclast F. Matthias Alexander. Alexander, who was the dedicatee of Perelman's recent Alexander Suite recording, taught methods for returning everyday bodily stances and activities (like the movement of fingers on a saxophone) to the world of clear-eyed consciousness. What had been learned so well as to become unconscious is thus reclaimed by the thinking individual. In the arena of improvised music, this allows the move from nearly automatic riff to sentient note choice with no reduction in speed. So, if you're inclined to wonder how two musicians can make music this intense, this frantic, this gorgeous, think of the power conferred by re-infusing conscious control and meaning into so many notes, pauses, and cymbal crashes. As The Hammer demonstrates, the freedom implied by overcoming habit can be very powerful.
 
Состав
Drums – Jay Rosen
Tenor Saxophone, Trombone [Trombivo] – Ivo Perelman
По всем вопросам пишите личное сообщение пользователю M0p94ok.
11:15
224
Нет комментариев. Ваш будет первым!