Вы используете незарегистрированную версию компонента "Вкладки"!

Поиск

(Free Jazz) [CD] Yosuke Yamashita Trio, Itaru Oki Trio, Yuji Ono Trio & Kimiko Kasai - Trio by Trio + 1 (2CD) - 1970 (2011 Japan Mini-LP Edition), FLAC (tracks+.cue), lossless

(Free Jazz) [CD] Yosuke Yamashita Trio, Itaru Oki Trio, Yuji Ono Trio & Kimiko Kasai - Trio by Trio + 1 (2CD) - 1970 (2011 Japan Mini-LP Edition), FLAC (tracks+.cue), lossless
Треклист:
Yosuke Yamashita Trio, Itaru Oki Trio, Yuji Ono Trio & Kimiko Kasai - Trio by Trio + 1
Жанр: Free Jazz
Носитель: CD
Страна-производитель диска (релиза): Япония
Год издания: 2011
Издатель (лейбл): Universounds (Deep Jazz Reality)
Номер по каталогу: DTHK-012
Аудиокодек: FLAC (*.flac)
Тип рипа: tracks+.cue
Битрейт аудио: lossless
Продолжительность: 1:43:20
Источник (релизер): wikieup (what)
Наличие сканов в содержимом раздачи: нет
 
CD1 {51:18}
01. Yosuke Yamashita Trio - Dore (Moriyama) - 11:33
02. Yosuke Yamashita Trio - Mokurin - Gugan (Yamashita) - 12:08
03. Itaru Oki Trio - Flying into the Space (Oki) - 16:44
04. Itaru Oki Trio - Conversation with Water (Oki) - 10:53
 
Лог создания рипа
Exact Audio Copy V1.0 beta 3 from 29. August 2011
EAC extraction logfile from 20. November 2014, 14:49
Various Artists / Trio By Trio +1 - Disc 1 [2011 Reissue]
Used drive : TSSTcorpDVD-ROM TS-U333B Adapter: 0 ID: 1
Read mode : Secure
Utilize accurate stream : Yes
Defeat audio cache : Yes
Make use of C2 pointers : No
Read offset correction : 6
Overread into Lead-In and Lead-Out : No
Fill up missing offset samples with silence : Yes
Delete leading and trailing silent blocks : No
Null samples used in CRC calculations : Yes
Used interface : Native Win32 interface for Win NT & 2000
Gap handling : Appended to previous track
Used output format : User Defined Encoder
Selected bitrate : 1024 kBit/s
Quality : High
Add ID3 tag : No
Command line compressor : C:\Program Files\Exact Audio Copy\Flac\flac.exe
Additional command line options : -8 -V -T "ARTIST=%artist%" -T "TITLE=%title%" -T "ALBUM=%albumtitle%" -T "DATE=%year%" -T "TRACKNUMBER=%tracknr%" -T "GENRE=%genre%" -T "PERFORMER=%albuminterpret%" -T "COMPOSER=%composer%" %haslyrics%--tag-from-file=LYRICS="%lyricsfile%"%haslyrics% -T "ALBUMARTIST=%albumartist%" -T "DISCNUMBER=%cdnumber%" -T "TOTALDISCS=%totalcds%" -T "TOTALTRACKS=%numtracks%" -T "COMMENT=%comment%" %source% -o %dest%
TOC of the extracted CD
Track | Start | Length | Start sector | End sector
---------------------------------------------------------
1 | 0:00.00 | 11:32.39 | 0 | 51938
2 | 11:32.39 | 12:08.34 | 51939 | 106572
3 | 23:40.73 | 16:44.33 | 106573 | 181905
4 | 40:25.31 | 10:52.49 | 181906 | 230854
Track 1
Filename C:\EAC Rips\01 - Yosuke Yamashita Trio , Dore.wav
Pre-gap length 0:00:02.00
Peak level 98.9 %
Extraction speed 1.3 X
Track quality 99.9 %
Test CRC 2E153659
Copy CRC 2E153659
Track not present in AccurateRip database
Copy OK
Track 2
Filename C:\EAC Rips\02 - Yosuke Yamashita Trio , Mokurin - Gugan.wav
Peak level 98.9 %
Extraction speed 1.7 X
Track quality 100.0 %
Test CRC 70CE61B6
Copy CRC 70CE61B6
Track not present in AccurateRip database
Copy OK
Track 3
Filename C:\EAC Rips\03 - Itaru Oki Trio , Flying Into The Space.wav
Pre-gap length 0:00:01.86
Peak level 98.9 %
Extraction speed 2.0 X
Track quality 100.0 %
Test CRC 33997974
Copy CRC 33997974
Track not present in AccurateRip database
Copy OK
Track 4
Filename C:\EAC Rips\04 - Itaru Oki Trio , Conversation With Water.wav
Peak level 98.9 %
Extraction speed 2.2 X
Track quality 100.0 %
Test CRC 916B003A
Copy CRC 916B003A
Track not present in AccurateRip database
Copy OK
None of the tracks are present in the AccurateRip database
No errors occurred
End of status report
==== Log checksum 1FB9E992978F958E91FF710D68DABEEFB8A32A721B0DF05BE15EE61EDCCC48F9 ====
 
Содержание индексной карты (.CUE)
REM GENRE Jazz
REM DATE 1970
REM DISCID 2D0C0604
REM COMMENT "ExactAudioCopy v1.0b3"
PERFORMER "Yosuke Yamashita, Itaru Oki"
TITLE "Trio by Trio + 1 CD1"
FILE "01 - Yosuke Yamashita - Dore.wav" WAVE
TRACK 01 AUDIO
TITLE "Dore"
PERFORMER "Yosuke Yamashita"
INDEX 01 00:00:00
FILE "02 - Yosuke Yamashita - Mokurin - Gugan.wav" WAVE
TRACK 02 AUDIO
TITLE "Mokurin - Gugan"
PERFORMER "Yosuke Yamashita"
INDEX 01 00:00:00
TRACK 03 AUDIO
TITLE "Flying into the Space"
PERFORMER "Itaru Oki"
INDEX 00 12:06:44
FILE "03 - Itaru Oki - Flying into the Space.wav" WAVE
INDEX 01 00:00:00
FILE "04 - Itaru Oki - Conversation with Water.wav" WAVE
TRACK 04 AUDIO
TITLE "Conversation with Water"
PERFORMER "Itaru Oki"
INDEX 01 00:00:00
 
CD2 {52:02}
01. Yuji Ohno Trio - Autumn Leaves (Kosma) - 13:15
02. Yuji Ohno Trio - I Can't Give You Anything But Love (McHugh-Fields) - 4:22
03. Yuji Ohno Trio - Get Out of Town (Porter) - 2:22
04. Yuji Ohno Trio - Kenny's Mood (Ono) - 6:07
05. Itaru Oki Trio, Yuji Ohno Trio, Kimiko Kasai - Black Shadow Woman (Oki) - 12:23
06. Itaru Oki Trio, Yuji Ohno Trio, Kimiko Kasai - Theme of the Unknown People (Ono) - 13:33
 
Лог создания рипа
Exact Audio Copy V1.0 beta 3 from 29. August 2011
EAC extraction logfile from 20. November 2014, 16:49
- / Trio By Trio +1 - Disc 2 [2011 Reissue]
Used drive : TSSTcorpDVD-ROM TS-U333B Adapter: 0 ID: 1
Read mode : Secure
Utilize accurate stream : Yes
Defeat audio cache : Yes
Make use of C2 pointers : No
Read offset correction : 6
Overread into Lead-In and Lead-Out : No
Fill up missing offset samples with silence : Yes
Delete leading and trailing silent blocks : No
Null samples used in CRC calculations : Yes
Used interface : Native Win32 interface for Win NT & 2000
Gap handling : Appended to previous track
Used output format : User Defined Encoder
Selected bitrate : 1024 kBit/s
Quality : High
Add ID3 tag : No
Command line compressor : C:\Program Files\Exact Audio Copy\Flac\flac.exe
Additional command line options : -8 -V -T "ARTIST=%artist%" -T "TITLE=%title%" -T "ALBUM=%albumtitle%" -T "DATE=%year%" -T "TRACKNUMBER=%tracknr%" -T "GENRE=%genre%" -T "PERFORMER=%albuminterpret%" -T "COMPOSER=%composer%" %haslyrics%--tag-from-file=LYRICS="%lyricsfile%"%haslyrics% -T "ALBUMARTIST=%albumartist%" -T "DISCNUMBER=%cdnumber%" -T "TOTALDISCS=%totalcds%" -T "TOTALTRACKS=%numtracks%" -T "COMMENT=%comment%" %source% -o %dest%
TOC of the extracted CD
Track | Start | Length | Start sector | End sector
---------------------------------------------------------
1 | 0:00.00 | 13:14.52 | 0 | 59601
2 | 13:14.52 | 4:22.34 | 59602 | 79285
3 | 17:37.11 | 2:21.60 | 79286 | 89920
4 | 19:58.71 | 6:06.49 | 89921 | 117419
5 | 26:05.45 | 12:23.36 | 117420 | 173180
6 | 38:29.06 | 13:32.40 | 173181 | 234120
Track 1
Filename C:\EAC Rips\01 - Yuji Ohno Trio - Autumn Leaves.wav
Pre-gap length 0:00:02.00
Peak level 98.9 %
Extraction speed 1.3 X
Track quality 100.0 %
Test CRC C80334A2
Copy CRC C80334A2
Track not present in AccurateRip database
Copy OK
Track 2
Filename C:\EAC Rips\02 - Yuji Ohno Trio - I Can't Give You Anything But Love.wav
Pre-gap length 0:00:02.57
Peak level 98.9 %
Extraction speed 1.5 X
Track quality 100.0 %
Test CRC F5CEF19D
Copy CRC F5CEF19D
Track not present in AccurateRip database
Copy OK
Track 3
Filename C:\EAC Rips\03 - Yuji Ohno Trio - Get Out Of Town.wav
Pre-gap length 0:00:01.86
Peak level 98.9 %
Extraction speed 1.4 X
Track quality 100.0 %
Test CRC 8D258854
Copy CRC 8D258854
Track not present in AccurateRip database
Copy OK
Track 4
Filename C:\EAC Rips\04 - Yuji Ohno Trio - Kenny's Moods.wav
Pre-gap length 0:00:01.86
Peak level 98.9 %
Extraction speed 1.7 X
Track quality 100.0 %
Test CRC BB1976FA
Copy CRC BB1976FA
Track not present in AccurateRip database
Copy OK
Track 5
Filename C:\EAC Rips\05 - Itaru Oki Trio, Yuji Ohno Trio, Kimiko Kasai - Black Shadow Woman.wav
Pre-gap length 0:00:01.86
Peak level 98.9 %
Extraction speed 2.0 X
Track quality 100.0 %
Test CRC 4AE3E9AA
Copy CRC 4AE3E9AA
Track not present in AccurateRip database
Copy OK
Track 6
Filename C:\EAC Rips\06 - Itaru Oki Trio, Yuji Ohno Trio, Kimiko Kasai - Track06.wav
Peak level 98.9 %
Extraction speed 2.3 X
Track quality 100.0 %
Test CRC AEE587AC
Copy CRC AEE587AC
Track not present in AccurateRip database
Copy OK
None of the tracks are present in the AccurateRip database
No errors occurred
End of status report
==== Log checksum 5161DC77472CD4CF601B15219B79ECAAD297CC8EAE25B5530BAD9AF019AB5457 ====
 
Содержание индексной карты (.CUE)
REM GENRE Jazz
REM DATE 1970
REM DISCID 440C3106
REM COMMENT "ExactAudioCopy v1.0b3"
PERFORMER "Itaru Oki, Yuji Ono, Kimiko Kasai"
TITLE "Trio by Trio + 1 CD2"
FILE "01 - Yuji Ohno - Autumn Leaves.wav" WAVE
TRACK 01 AUDIO
TITLE "Autumn Leaves"
PERFORMER "Yuji Ohno"
INDEX 01 00:00:00
TRACK 02 AUDIO
TITLE "I Can't Give You Anything But Love"
PERFORMER "Yuji Ohno"
INDEX 00 13:12:09
FILE "02 - Yuji Ohno - I Can't Give You Anything But Love.wav" WAVE
INDEX 01 00:00:00
TRACK 03 AUDIO
TITLE "Get Out of Town"
PERFORMER "Yuji Ohno"
INDEX 00 04:20:44
FILE "03 - Yuji Ohno - Get Out of Town.wav" WAVE
INDEX 01 00:00:00
TRACK 04 AUDIO
TITLE "Kenny's Mood"
PERFORMER "Yuji Ohno"
INDEX 00 02:19:70
FILE "04 - Yuji Ohno - Kenny's Mood.wav" WAVE
INDEX 01 00:00:00
TRACK 05 AUDIO
TITLE "Black Shadow Woman"
PERFORMER "Itaru Oki, Yuji Ohno, Kimiko Kasai"
INDEX 00 06:04:59
FILE "05 - Itaru Oki, Yuji Ohno, Kimiko Kasai - Black Shadow Woman.wav" WAVE
INDEX 01 00:00:00
FILE "06 - Itaru Oki, Yuji Ohno, Kimiko Kasai - Theme of the Unknown People.wav" WAVE
TRACK 06 AUDIO
TITLE "Theme of the Unknown People"
PERFORMER "Itaru Oki, Yuji Ohno, Kimiko Kasai"
INDEX 01 00:00:00
 
Об альбоме (сборнике)
A really unique little record – and a wonderful cross-section of the Japanese scene at the start of the 70s! The album features work by three trios – hence the title – some avant, some straight, and all if it pretty great! First up are the Yosuke Yamashita trio – who really step outside on the tracks "Dore" and "Morkurin Gugan" – material that really demonstrates the sharp, free-thinking sound of the group. Next is work from a trio led by Itaru Oki, with some really bold trumpet lines – stretching out and carving great space over relatively open, free territory – on titles "Flying Into Space" and "Conversation With Water". The trio of Yuji Ono follows, grooving soulfully on some tracks instrumentally, joined by vocals from Kimiko Kasai on a few others – titles that include "Kenny's Mood", "Get Out Of Town", and "Autumn Leaves". Then, the best work of all – two long vocal tracks that feature Kasai singing hip and wordlessly, with combined backing from the groups of Oki and Ono – titles that include "Black Shadow Woman" and "Theme Of The Unknown People". (Part of the Deep Jazz Reality series!)
 
Состав
Yosuke Yamashita Trio:
Yosuke Yamashita - piano
Seiichi Nakamura - tenor saxophone, soprano saxophone
Takeo Moriyama - drums
Itaru Oki Trio:
Itaru Oki - trumpet
Keiki Midorikawa - bass
Hozumi Tanaka - drums
Yuji Ono Trio:
Yuji Ono - piano
Takashi Mizuhashi - bass
Kazuyoshi Okayama - drums
Kimiko Kasai - vocals
Recorded live at Yamaha Hall, Ginza, Tokyo on May 20, 1970.
По всем вопросам пишите личное сообщение пользователю M0p94ok.
12:55
138
Нет комментариев. Ваш будет первым!